<?xml version="1.0" standalone="no"?>
<!DOCTYPE svg PUBLIC "-//W3C//DTD SVG 1.1//EN" "http://www.w3.org/Graphics/SVG/1.1/DTD/svg11.dtd" >
<svg xmlns="http://www.w3.org/2000/svg">
<metadata></metadata>
<defs>
<font id="crimson_textitalic" horiz-adv-x="820" >
<font-face units-per-em="2048" ascent="1434" descent="-614" />
<missing-glyph horiz-adv-x="456" />
<glyph horiz-adv-x="2048" />
<glyph horiz-adv-x="2048" />
<glyph unicode="&#xd;" horiz-adv-x="682" />
<glyph unicode=" "  horiz-adv-x="456" />
<glyph unicode="&#x09;" horiz-adv-x="456" />
<glyph unicode="&#xa0;" horiz-adv-x="456" />
<glyph unicode="!" horiz-adv-x="374" d="M140 72q0 56 38 94t94 38q36 0 61 -28t25 -64q0 -58 -37 -99t-93 -41q-38 0 -63 30t-25 70zM260 332q0 4 17 144t43 342t46 336q6 34 40 71t78 37q30 0 46 -26t16 -60q0 -24 -33 -147t-91 -335t-94 -354q-4 -18 -25 -31t-31 -13q-12 0 -12 36z" />
<glyph unicode="&#x22;" horiz-adv-x="594" d="M90 894q8 80 8 151t-4 136t-4 91q6 34 46 79t88 45q46 0 57 -21t-1 -109q-12 -62 -57 -188t-61 -180q-4 -14 -17 -22t-25 -8t-22 7t-8 19zM390 894q8 80 8 151t-4 136t-4 91q6 34 46 79t88 45q46 0 57 -21t-1 -109q-12 -62 -57 -188t-61 -180q-4 -14 -17 -22t-25 -8 t-22 7t-8 19z" />
<glyph unicode="#" horiz-adv-x="838" d="M-4 362q0 26 17 63t33 37h154l58 172h-152q-14 0 -14 12q0 26 17 63t33 37h154l102 302q6 16 66 16q44 0 44 -12q-2 -2 -2 -4l-104 -302h174l102 302q6 16 66 16q44 0 44 -12q-2 -2 -2 -4l-104 -302h152q14 0 14 -10q0 -26 -17 -64t-33 -38h-154l-58 -172h152 q14 0 14 -12q0 -26 -17 -63t-33 -37h-154l-102 -302q-6 -16 -66 -16q-44 0 -44 10q2 4 2 6l104 302h-174l-102 -302q-6 -16 -66 -16q-44 0 -44 10q2 4 2 6l104 302h-152q-14 0 -14 12zM306 462h174l58 172h-174z" />
<glyph unicode="$" horiz-adv-x="860" d="M104 30q-18 130 6 302q4 16 36 16q28 0 38 -16q14 -270 242 -270q92 0 168 58t96 162q4 22 4 43t-1 38t-9 34t-13 28t-19 25t-20 21t-25 20t-23 16t-25 16t-23 15q-84 52 -131 88t-95 86t-62 107t0 127q28 146 153 244t267 98q42 0 95 -9t104 -22t61 -15 q-12 -172 -32 -274q-4 -16 -16 -16q-44 4 -44 22q4 70 -45 150t-149 80q-202 0 -240 -194q-18 -92 25 -150t145 -128q150 -106 182 -134q130 -118 102 -258q-30 -154 -163 -255t-287 -101q-72 0 -302 46zM250 -86l506 1452q64 0 62 -14l-506 -1456q-64 0 -62 18z" />
<glyph unicode="%" horiz-adv-x="1236" d="M-28 -2l1192 1306q22 22 44 22q44 0 54 -26l-1192 -1300q-24 -24 -68 -24q-24 0 -30 22zM116 938q0 152 108 280t256 128q110 0 168 -77t58 -187q0 -150 -108 -278t-250 -128q-108 0 -170 77t-62 185zM242 956q0 -90 32 -157t98 -67q90 0 147 110t57 240q0 84 -27 147 t-89 63q-90 0 -154 -106t-64 -230zM540 246q0 152 108 280t256 128q110 0 168 -77t58 -187q0 -150 -108 -278t-250 -128q-108 0 -170 77t-62 185zM666 264q0 -90 32 -157t98 -67q90 0 147 110t57 240q0 84 -27 147t-89 63q-90 0 -154 -106t-64 -230z" />
<glyph unicode="&#x26;" horiz-adv-x="1288" d="M156 392q0 122 79 228t173 142q-76 86 -76 196q0 132 116 222t248 90q92 0 161 -50t69 -134q0 -58 -43 -110t-77 -52q-18 0 -18 14q0 2 10 29t10 61q0 64 -46 108t-110 44q-92 0 -156 -69t-64 -163q0 -100 66 -158q50 14 78 14q56 0 103 -22t47 -62q0 -38 -40 -59 t-90 -21q-76 0 -124 42q-144 -122 -144 -274q0 -146 100 -248t248 -102q164 0 293 123t129 293q0 78 -47 137t-119 59q-56 0 -98 -30t-42 -80q0 -28 22 -43t47 -19t47 -20t22 -44q0 -34 -19 -60t-47 -34q-48 0 -101 50t-53 126q0 110 86 183t202 73q30 0 76 -2t76 -2 q70 0 123 31t53 89q0 30 -18 51t-46 21q-22 0 -53 -18t-53 -18q-24 0 -41 20t-17 46q0 46 52 86q112 0 181 -50t69 -138t-61 -142t-163 -54q-12 0 -52 4q110 -98 110 -248q0 -198 -177 -337t-405 -139q-198 0 -347 118t-149 302z" />
<glyph unicode="'" horiz-adv-x="294" d="M90 894q8 80 8 151t-4 136t-4 91q6 34 46 79t88 45q46 0 57 -21t-1 -109q-12 -62 -57 -188t-61 -180q-4 -14 -17 -22t-25 -8t-22 7t-8 19z" />
<glyph unicode="(" horiz-adv-x="584" d="M42 348q0 210 66 428t156 371t183 251t149 98q18 0 18 -40q0 -10 -4 -14q-80 -38 -183 -202t-185 -419t-82 -493q0 -194 45 -343t89 -175q2 0 2 -6q0 -12 -13 -29t-23 -17q-70 0 -144 175t-74 415z" />
<glyph unicode=")" horiz-adv-x="552" d="M-34 -206q0 14 6 16q28 14 79 72t115 164t121 237t95 310t38 361q0 186 -37 321t-93 167q-2 2 -2 4q0 10 12 30t22 20q78 0 147 -168t69 -414q0 -190 -47 -377t-117 -322t-148 -242t-143 -161t-99 -54q-18 0 -18 36z" />
<glyph unicode="*" horiz-adv-x="686" d="M18 912q0 18 7 35t36 35t79 18q32 0 85 -7t71 -7q50 0 50 34q0 20 -51 99t-51 127q0 36 21 59t47 23q22 0 36 -14t20 -41t8 -52t2 -61q0 -132 24 -132q16 0 45 37t58 82t69 82t74 37q46 0 46 -48q0 -38 -42 -76t-91 -61t-91 -51t-42 -48q0 -18 39 -31t85 -21t85 -32 t39 -60q0 -28 -22 -50t-52 -22q-36 0 -76 41t-73 83t-53 42t-27 -36t-13 -103t-20 -111q-12 -42 -35 -64t-47 -22q-20 0 -33 15t-13 41q0 44 65 149t65 127q0 18 -18 18q-16 0 -110 -41t-136 -41q-60 0 -60 48z" />
<glyph unicode="+" horiz-adv-x="914" d="M-6 462q0 38 44 94h356q8 0 8 8q12 58 32 181t34 195q4 18 48 27t64 9q12 0 17 -5t3 -13q-46 -268 -70 -392q-4 -10 6 -10h362q8 0 8 -18q0 -48 -42 -94h-358q-8 0 -8 -8l-70 -376q-2 -16 -36 -26t-64 -10q-16 0 -24 6t-6 12q50 280 72 392q0 10 -8 10h-358q-10 0 -10 18 z" />
<glyph unicode="," horiz-adv-x="418" d="M-10 -286q0 6 47 47t95 105t48 124q0 32 -13 82t-13 60q0 50 50 88t108 38q16 0 44 -8q6 -14 6 -46q0 -40 -22 -134q-16 -66 -53 -131t-81 -111t-85 -82t-69 -54l-26 -18q-8 0 -22 13t-14 27z" />
<glyph unicode="-" horiz-adv-x="590" d="M38 428q0 20 14 56t28 38l454 24q12 0 12 -24q0 -22 -16 -61t-30 -41l-452 -22q-10 0 -10 30z" />
<glyph unicode="." horiz-adv-x="338" d="M120 66q0 54 42 96t92 42q38 0 62 -25t24 -65q0 -54 -41 -98t-91 -44q-38 0 -63 27t-25 67z" />
<glyph unicode="/" horiz-adv-x="926" d="M-30 -56l850 1534q26 44 88 44q24 0 48 -12l-848 -1534q-26 -42 -102 -42q-26 0 -36 10z" />
<glyph unicode="0" d="M115 317q-17 143 15 321q34 176 109 321t186 234t235 89q94 0 162 -52t100 -140t39 -205t-21 -247q-36 -176 -111 -321t-186 -234t-233 -89q-124 0 -201 90t-94 233zM279 237q35 -167 137 -167q118 0 216 166t148 414q46 236 12 396t-136 160q-116 0 -216 -162t-146 -404 q-50 -236 -15 -403z" />
<glyph unicode="1" d="M206 -6q-6 8 0 33t12 25q26 0 79 13t59 27q16 34 32 114l140 720q12 58 15 88t-1 37t-14 7t-34 -12t-55 -30t-43 -24q-10 6 -17 23t-7 27q0 6 6 12q360 230 366 230h4q16 0 16 -38q-32 -66 -56 -188l-152 -788q-22 -122 -20 -178q2 -14 50 -27t66 -13q6 0 0 -36 q-2 -16 -6 -22q-184 10 -222 10q-28 0 -218 -10z" />
<glyph unicode="2" d="M64 66q246 222 435 455t221 397q20 108 -18 167t-120 59q-156 0 -280 -166q-10 0 -20 13t-8 19q10 24 43 65t84 90t128 84t155 35q84 0 137 -51t68 -123t-1 -152q-12 -64 -47 -135t-74 -130t-103 -133t-107 -120t-116 -114t-100 -92t-87 -76q-14 -14 0 -14h342q22 0 40 3 t34 14t25 16t22 26t16 27t17 35t18 35q12 20 30 20q28 0 32 -8q-12 -30 -49 -125t-57 -155q-12 -32 -44 -32h-610q-12 30 -6 66z" />
<glyph unicode="3" d="M84 76q-2 20 0 32q10 44 33 69t55 25q18 0 32 -15t31 -39t29 -36q46 -42 132 -42q36 0 74 15t77 46t71 90t48 139q24 118 -31 200t-149 82q-68 0 -124 -14q-12 20 -4 52q4 12 8 20q134 24 224 96t114 196q14 68 -25 121t-103 53q-40 0 -78 -15t-58 -31t-40 -35t-24 -21 q-8 0 -11 19t-1 33q66 80 138 124t172 44q80 0 139 -71t37 -185q-18 -88 -69 -149t-137 -121q40 -16 76 -43t69 -69t47 -103t0 -131q-36 -190 -182 -306t-332 -116q-158 0 -230 60q-6 6 -8 26z" />
<glyph unicode="4" d="M100 348q-8 16 0 62l730 856q22 24 48 24t20 -20l-158 -806h134q18 0 12 -14q-12 -66 -32 -102h-136l-68 -350q-8 -10 -80 -10q-36 0 -51 3t-15 13l68 344h-472zM246 482q-4 -18 10 -18h338l104 532q2 4 0 11t-6 7l-4 -4l-440 -522q-2 -2 -2 -6z" />
<glyph unicode="5" d="M84 76q-2 20 2 32q8 44 31 69t57 25q16 0 31 -15t32 -39t29 -36q46 -42 140 -42q78 0 154 71t106 219q12 46 6 97t-24 93t-70 69t-128 27q-96 0 -166 -22q-12 8 -28 28l204 594q368 12 442 28q6 -14 2 -42q-10 -54 -32 -110q-52 -16 -215 -23l-163 -7q-10 -2 -16 -16 q-16 -40 -116 -320q64 26 180 26q150 0 236 -110t58 -260q-36 -184 -179 -303t-325 -119q-166 0 -238 60q-8 6 -10 26z" />
<glyph unicode="6" d="M116 324q0 86 23 177t80 197t144 204t227 196t316 176q16 0 16 -50q-194 -82 -334 -205t-224 -319q-88 -208 -88 -396q0 -100 40 -169t122 -69q90 0 176 106t86 262q0 100 -47 162t-145 62q-16 0 -34 -4t-28 -8t-26 -11t-18 -7q-12 8 -12 28q0 34 68 61t110 27 q128 0 210 -84t82 -208q0 -112 -66 -221t-172 -176t-212 -67q-136 0 -215 86t-79 250z" />
<glyph unicode="7" d="M172 44l700 1062h-448q-30 0 -60 -28t-48 -56t-40 -74q-4 -8 -28 -10t-36 4q8 22 53 135t63 165q10 24 34 24h538q28 0 76 3t50 3q12 0 8 -18q-2 -10 -10 -26t-17 -29t-26 -39t-27 -40l-708 -1126q-6 -6 -20 -6q-20 0 -38 21t-16 35z" />
<glyph unicode="8" d="M120 308q10 58 42 109t82 93t81 64t81 52q12 6 18 10q12 8 4 12q-64 46 -107 129t-23 183q26 128 138 227t234 99q128 0 200 -83t46 -221q-30 -150 -266 -294q-12 -2 -2 -12q86 -60 141 -152t37 -190q-28 -148 -155 -250t-269 -102q-154 0 -233 90t-49 236zM268 314 q-24 -116 24 -188t128 -72q92 0 158 60t86 162q8 46 -6 95t-36 82t-57 68t-48 46t-31 23q-8 4 -10 4q-6 0 -8 -2q-88 -54 -135 -118t-65 -160zM440 984q-26 -136 144 -256q8 -4 10 -4q6 0 12 4q142 90 174 244q18 94 -18 169t-116 75q-70 0 -128 -64t-78 -168z" />
<glyph unicode="9" d="M134 30q196 82 338 205t224 319q80 188 80 396q0 102 -38 170t-120 68q-88 0 -168 -105t-80 -261q0 -212 190 -212q20 0 35 1t24 3t13 3t12 4t10 5q12 -10 12 -28q0 -34 -65 -56t-111 -22q-126 0 -204 80t-78 204q0 174 137 318t301 144q136 0 215 -86t79 -250 q0 -88 -19 -178t-73 -198t-137 -204t-223 -193t-320 -169q-30 8 -34 42z" />
<glyph unicode=":" horiz-adv-x="360" d="M120 68q0 56 42 100t94 44q40 0 65 -27t25 -69q0 -56 -42 -100t-94 -44q-40 0 -65 27t-25 69zM248 734q0 56 43 99t95 43q40 0 65 -27t25 -67q0 -56 -42 -101t-94 -45q-40 0 -66 28t-26 70z" />
<glyph unicode=";" horiz-adv-x="478" d="M-30 -286q0 12 23 30t53 39t62 71t46 118q4 24 4 50q0 40 -11 68t-11 34q0 40 49 82t103 42q46 0 46 -68q0 -26 -16 -112q-24 -124 -89 -204t-217 -194q-8 -4 -14 -4q-28 0 -28 48zM250 734q0 56 43 99t95 43q40 0 65 -27t25 -67q0 -56 -42 -101t-94 -45q-40 0 -66 28 t-26 70z" />
<glyph unicode="&#x3c;" horiz-adv-x="812" d="M-2 406q0 52 46 76l762 374q4 2 8 2q14 0 14 -70q0 -36 -10 -40l-670 -330l548 -336q4 -2 4 -10q0 -18 -21 -59t-29 -41q-4 0 -8 2l-624 380q-20 14 -20 52z" />
<glyph unicode="=" horiz-adv-x="1006" d="M30 246q0 10 17 55t29 45h832q12 0 12 -10q0 -4 -36 -90l-14 -12h-830q-10 0 -10 12zM88 530q0 8 16 54t28 46h830q12 0 12 -10t-34 -90q-2 -6 -6 -9t-6 -3h-4h-828q-8 0 -8 12z" />
<glyph unicode="&#x3e;" horiz-adv-x="838" d="M-18 66l10 16l682 336l-544 330q-4 2 -4 8q0 12 22 58t30 46l8 -4l614 -374q24 -14 24 -40q0 -64 -48 -88l-770 -380q-8 -4 -12 -4q-12 0 -12 96z" />
<glyph unicode="?" horiz-adv-x="588" d="M128 64q0 56 40 98t90 42q38 0 64 -26t26 -66q0 -54 -43 -97t-93 -43q-38 0 -61 26t-23 66zM182 558q0 108 84 166l238 168q94 66 94 142q0 58 -29 89t-79 31q-46 0 -83 -47t-73 -47q-68 0 -68 104q10 28 54 63t94 35q120 0 205 -80t85 -178q0 -48 -9 -83t-20 -59 t-43 -52t-57 -44t-85 -55t-104 -69q-66 -44 -66 -120q0 -38 26 -74t52 -54q0 -20 -20 -32q-48 0 -122 61t-74 135z" />
<glyph unicode="@" horiz-adv-x="1446" d="M20 197q-10 87 10 173q46 240 183 421t324 272t397 91q108 0 197 -41t145 -110t93 -158t42 -186t-11 -193q-26 -138 -78 -239t-114 -153t-122 -76t-120 -24q-90 0 -136 70t-32 140q0 2 -4 0t-6 -4q-40 -54 -142 -124t-166 -70q-66 0 -105 47t-44 112t5 137q20 102 72 197 t130 172t186 123t228 46l162 -18q-32 -94 -36 -106l-130 -446q-60 -196 50 -196q66 0 123 42t93 106t58 121t30 105q34 168 -3 310t-143 230t-260 88q-168 0 -326 -78t-271 -219t-147 -313q-20 -120 -18 -224t39 -192t101 -150t169 -97t241 -35q64 0 134 26v-18 q-4 -28 -50 -55t-120 -37q-114 -4 -213 22t-170 76t-126 119t-82 149t-37 167zM480 286q-18 -94 8 -137t68 -43q72 0 170 93t112 141l86 304q0 2 4 13t5 16t1 13t-3 12t-9 6q-134 48 -265 -65t-177 -353z" />
<glyph unicode="A" horiz-adv-x="1212" d="M4 10q0 38 14 38q22 0 61 12t55 30q44 48 122 188l552 992q30 54 78 54q8 0 16 -4l166 -1056q20 -126 24 -144q6 -30 51 -51t65 -21q4 0 4 -10q0 -24 -10 -44q-186 10 -208 10q-38 0 -71 -2t-73 -4t-70 -4q-2 2 -2 12q0 42 14 42q20 0 56 12t46 28q14 30 14 94 q0 34 -36 296v5t-3 4t-8 4t-14 2t-24 2t-36 2t-50 1h-67q-42 0 -186 -10q-6 0 -54 -80t-94 -174t-46 -124q0 -22 28 -38t51 -20t31 -4q4 0 4 -12q0 -22 -10 -42q-186 10 -190 10q-38 0 -67 -2t-63 -4t-66 -4q-4 4 -4 16zM542 602q0 -4 2 -4q46 -2 152 -2q92 0 150 4q8 0 8 8 q0 10 -13 94t-30 196t-23 154q-246 -446 -246 -450z" />
<glyph unicode="B" horiz-adv-x="1056" d="M48 12q0 40 14 40q24 0 73 14t57 32q28 58 52 186l144 744q22 114 22 186q0 14 -45 31t-67 17q-4 0 -4 8q0 32 14 46q92 -4 214 -4q94 0 154 1t108 1q56 0 111 -13t106 -41t83 -81t32 -123q0 -48 -14 -93t-36 -77t-50 -60t-54 -47t-49 -32t-37 -19l-12 -6q60 -10 136 -94 t76 -198q0 -164 -149 -297t-403 -133h-254l-220 -6q-2 2 -2 18zM384 136q0 -36 28 -45t92 -9q140 0 194 26q82 38 140 122t58 192q0 106 -66 173t-212 67q-142 0 -148 -30l-76 -400q-10 -60 -10 -96zM500 772q-2 -8 7 -13t27 -8t38 -4t46 -1q64 0 110 8t102 34t86 88t30 156 q0 200 -206 200q-146 0 -150 -26z" />
<glyph unicode="C" horiz-adv-x="1160" d="M120 534q0 132 59 274t157 259t241 192t297 75q136 0 426 -90q-36 -228 -40 -248q-6 -30 -48 -30q-16 0 -22 6q0 30 -2 54t-20 70t-49 76t-97 54t-158 24q-206 0 -384 -220t-178 -512q0 -192 104 -318t294 -126q148 0 252 66q50 30 87 72t54 68t19 26q6 0 24 -21t16 -29 q-90 -172 -100 -182q-30 -34 -156 -60t-254 -26q-238 0 -380 163t-142 383z" />
<glyph unicode="D" horiz-adv-x="1336" d="M48 10q0 38 10 38q22 0 74 16t60 34q28 58 52 186l144 744q23 123 23 173q0 8 -1 13q-2 16 -46 32t-66 16q-4 0 -4 8q0 32 14 46q92 -4 214 -4q70 0 180 2t146 2q260 0 394 -144t134 -362q0 -102 -30 -212t-95 -218t-155 -194t-222 -139t-286 -53q-36 0 -142 5t-174 5 l-222 -10q-2 2 -2 16zM398 193q0 -57 4 -67q18 -40 232 -40q168 0 300 109t199 277t67 356q0 176 -88 288t-268 112q-214 0 -240 -32q-32 -40 -54 -158l-146 -760q-6 -28 -6 -85z" />
<glyph unicode="E" horiz-adv-x="1038" d="M48 10q0 38 10 38q22 0 74 16t60 34q28 58 52 186l144 744q23 123 23 173q0 8 -1 13q-2 16 -46 32t-66 16q-4 0 -4 8q0 32 14 46q92 -4 214 -4q82 0 282 8t304 8q-2 -28 -2 -78q0 -34 2 -98t2 -96q-10 -10 -36 -10q-24 0 -24 14q-6 112 -52 142t-146 30h-108 q-142 0 -152 -26q-22 -60 -36 -134l-64 -350q0 -6 5 -9t17 -4l24 -2t28 -1h90q132 0 164 19t78 123q6 14 28 14q24 0 30 -10l-74 -384q-12 -8 -28 -8q-26 0 -28 16q-2 54 -8 81t-9 32t-13 13q-20 16 -194 16q-132 0 -136 -18l-58 -296q-22 -106 -22 -174q0 -30 16 -36 t106 -6h90q174 0 242 34q32 16 75 71t81 131q6 12 30 12q34 0 42 -12q-140 -260 -164 -332q-106 0 -329 6t-303 6l-222 -10q-2 2 -2 16z" />
<glyph unicode="F" horiz-adv-x="1006" d="M48 10q0 38 10 38q22 0 74 16t60 34q28 58 52 186l144 744q23 123 23 173q0 8 -1 13q-2 16 -46 32t-66 16q-4 0 -4 8q0 32 14 46q92 -4 214 -4q80 0 278 8t304 8q-2 -28 -2 -78q0 -34 2 -98t2 -96q-10 -10 -36 -10q-24 0 -24 14q-6 112 -52 142t-146 30h-108 q-142 0 -152 -26q-22 -60 -36 -134l-64 -350q0 -6 5 -9t17 -4l24 -2t28 -1h90q132 0 164 19t78 123q6 14 28 14q24 0 30 -10l-74 -384q-12 -8 -28 -8q-26 0 -28 16q-2 54 -8 81t-9 32t-13 13q-20 16 -194 16q-132 0 -136 -18l-68 -344q-16 -80 -16 -158q0 -16 34 -29t68 -17 l34 -4q4 0 4 -16q0 -26 -12 -38q-186 10 -234 10l-222 -10q-2 2 -2 16z" />
<glyph unicode="G" horiz-adv-x="1232" d="M120 508q0 194 102 385t280 316t376 125q136 0 426 -90q-30 -198 -42 -260q-2 -18 -46 -18q-18 0 -22 10q0 30 -2 53t-20 68t-49 75t-97 54t-158 24q-146 0 -277 -109t-206 -272t-75 -323q0 -192 100 -332t276 -140q164 0 250 44q16 8 22 34l56 284l2 8q2 10 4 25t2 27 q0 18 -56 35t-82 17q-4 0 -4 10q0 28 16 44q216 -10 218 -10q28 0 218 10q0 -54 -12 -54q-34 0 -88 -19t-60 -57l-48 -278q0 -2 -1 -7t-1 -7q0 -14 2 -31t2 -23q0 -10 -2 -15t-13 -13t-31 -16q-4 -2 -39 -15t-45 -17t-45 -15t-55 -15t-58 -12t-70 -11t-77 -6t-93 -3 q-212 0 -345 149t-133 371z" />
<glyph unicode="H" horiz-adv-x="1254" d="M48 10q0 38 14 38q24 0 72 13t56 31q30 68 52 192l142 740q22 110 22 184q0 22 -43 38t-69 16q-4 0 -4 10q0 28 16 44q24 -2 95 -7t121 -5q48 0 123 6t89 6v-6q0 -48 -14 -48q-16 0 -67 -16t-57 -30q-32 -74 -52 -186l-50 -282v-2q0 -10 53 -13t247 -3q260 0 262 16 l54 278q22 110 22 184q0 22 -43 38t-69 16q-4 0 -4 10q0 28 16 44q24 -2 95 -7t121 -5q48 0 125 6t89 6v-6q0 -48 -14 -48q-16 0 -66 -16t-56 -30q-30 -66 -52 -186l-146 -752q-22 -110 -22 -180q0 -16 27 -29t55 -17l26 -4q4 0 4 -8q0 -22 -12 -46q-186 10 -208 10 q-6 0 -220 -10q-4 4 -4 16q0 38 14 38q24 0 72 13t56 31q30 68 52 192l64 330v2q0 10 -47 13t-227 3q-288 0 -292 -24l-64 -330q-22 -110 -22 -180q0 -16 27 -29t53 -17l28 -4q4 0 4 -8q0 -22 -12 -46q-184 10 -208 10q-4 0 -220 -10q-4 4 -4 16z" />
<glyph unicode="I" horiz-adv-x="526" d="M48 10q0 38 14 38q24 0 72 13t56 31q30 68 52 192l142 740q22 110 22 184q0 22 -43 38t-69 16q-4 0 -4 10q0 28 16 44q24 -2 95 -7t121 -5q48 0 123 6t89 6v-6q0 -48 -14 -48q-16 0 -67 -16t-57 -30q-26 -56 -52 -186l-142 -752q-22 -110 -22 -180q0 -16 27 -29t53 -17 l28 -4q4 0 4 -8q0 -22 -12 -46q-184 10 -208 10q-4 0 -220 -10q-4 4 -4 16z" />
<glyph unicode="J" horiz-adv-x="508" d="M-160 -430l2 12q164 52 248 196t140 440l150 806q22 128 22 184q0 22 -50 38t-76 16q-4 0 -4 10q0 28 16 44q24 -2 95 -7t121 -5q48 0 123 6t89 6v-6q0 -48 -14 -48q-16 0 -60 -16t-50 -30q-32 -74 -52 -186l-150 -798q-28 -152 -79 -275t-108 -200t-122 -129t-121 -73 t-108 -21q-12 14 -12 36z" />
<glyph unicode="K" horiz-adv-x="1284" d="M48 10q0 38 14 38q24 0 72 13t56 31q30 68 52 192l142 740q22 110 22 184q0 22 -43 38t-69 16q-4 0 -4 10q0 28 16 44q24 -2 95 -7t121 -5q48 0 123 6t89 6v-6q0 -48 -14 -48q-16 0 -67 -16t-57 -30q-26 -56 -52 -186l-142 -752q-22 -110 -22 -180q0 -16 27 -29t53 -17 l28 -4q4 0 4 -8q0 -22 -12 -46q-184 10 -208 10q-4 0 -220 -10q-4 4 -4 16zM474 652q92 56 247 203t295 301q2 2 14 15t21 23t17 23t8 19q0 18 -35 26t-61 8q-6 0 -6 12q0 18 10 34q24 -2 63 -5t71 -5t62 -2q48 0 125 6t89 6q0 -46 -12 -46q-140 -16 -212 -88l-488 -488 q-10 -10 -10 -24q0 -16 12 -32l408 -494q34 -42 108 -65t102 -23q4 0 4 -12q0 -22 -10 -42q-102 -6 -150 -6q-64 0 -119 20t-78 38t-35 34q-398 506 -440 564z" />
<glyph unicode="L" horiz-adv-x="996" d="M48 10q0 48 14 48q26 0 74 12t56 28q28 58 52 186l142 740q22 110 22 184q0 22 -43 38t-69 16q-4 0 -4 10q0 28 16 44q24 -2 95 -7t121 -5q48 0 123 6t89 6v-6q0 -48 -14 -48q-16 0 -67 -16t-57 -30q-26 -56 -52 -186l-142 -752q-20 -116 -20 -148q0 -30 17 -36t107 -6 h90q174 0 242 34q32 16 75 71t81 131q6 12 30 12q34 0 42 -12q-140 -260 -164 -332q-104 0 -328 6t-304 6l-222 -10q-2 2 -2 16z" />
<glyph unicode="M" horiz-adv-x="1628" d="M24 14q0 34 14 34q24 0 85 16t69 32q36 68 66 178l218 782q4 22 11 51t11 52t4 49q0 22 -57 38t-79 16q-4 0 -4 14q0 32 12 40q148 -4 188 -4q114 0 190 4q18 -164 152 -990q0 -2 2 -2q6 0 6 4l356 718l126 270q54 -6 158 -6q70 0 174 8q2 -5 2 -13.5t-2 -20.5 q-4 -24 -10 -24q-26 0 -55 -14t-43 -34q-18 -24 -27 -58t-19 -120l-78 -764q-12 -104 -12 -158q0 -20 8 -34t23 -19t28 -7t32 -3t25 -1q4 0 4 -18q0 -24 -12 -36q-186 10 -218 10q-6 0 -210 -10q-4 8 -4 10q0 12 5 28t9 16q26 0 72 10t54 26q6 14 12 29t9 26t7 30t5 28t3 34 t4 33l80 780q6 60 6 78q0 12 -12 12q-2 0 -6 -8l-522 -1064q-10 -18 -38 -42t-52 -24q-8 0 -16 4l-170 1134q-2 4 -4 4q-6 0 -6 -4l-234 -862q-38 -136 -38 -166q0 -14 34 -29t66 -22t36 -7t4 -12q0 -22 -10 -42q-186 10 -208 10q-6 0 -220 -10q-4 4 -4 20z" />
<glyph unicode="N" horiz-adv-x="1326" d="M48 10q0 38 14 38q24 0 85 16t69 32q22 44 54 192l154 744q18 88 18 180q0 24 -52 37t-84 13q-4 0 -4 14q0 30 14 40q156 -8 198 -8q36 0 188 8q30 -118 146 -393t238 -517q14 40 22 82l102 538q26 130 26 184q0 24 -55 38t-85 14q-4 0 -4 14q0 30 14 40q206 -10 210 -10 q28 0 218 10q0 -54 -12 -54q-20 0 -85 -15t-71 -29q-26 -64 -50 -186l-150 -760q-12 -62 -28 -160t-20 -120q-8 -8 -20 -8q-28 0 -52 46q-2 4 -492 1132l-178 -880q-20 -98 -20 -178q0 -16 32 -30t64 -20l34 -6q4 0 4 -10q0 -24 -10 -44q-184 10 -208 10q-4 0 -220 -10 q-4 4 -4 16z" />
<glyph unicode="O" horiz-adv-x="1248" d="M120 518q0 208 110 399t282 304t352 113q202 0 339 -151t137 -365q0 -216 -103 -410t-277 -311t-368 -117q-214 0 -343 153t-129 385zM302 534q0 -204 89 -336t253 -132q208 0 360 227t152 497q0 200 -88 330t-250 130q-216 0 -366 -223t-150 -493z" />
<glyph unicode="P" horiz-adv-x="1010" d="M48 10q0 38 14 38q22 0 71 14t57 30q20 40 52 192l164 824q10 50 10 104q0 24 -39 37t-67 13q-4 0 -4 14q0 30 14 40q86 -6 208 -6q56 0 132 3t130 3q116 0 228 -87t112 -221q0 -172 -141 -295t-311 -123q-92 0 -140 18q-4 14 -4 20q0 20 12 32q28 -4 48 -4 q136 0 251 100t115 276q0 210 -216 210q-94 0 -125 -9t-35 -31l-186 -946q-18 -90 -18 -158q0 -16 32 -29t64 -17l34 -4q4 0 4 -16q0 -26 -12 -38q-186 10 -204 10q-6 0 -246 -10q-4 4 -4 16z" />
<glyph unicode="Q" horiz-adv-x="1248" d="M120 518q0 208 110 399t282 304t352 113q202 0 339 -151t137 -365q0 -208 -99 -398t-261 -308q-186 -136 -428 -182q60 -8 280 -102t354 -94q74 0 161 43t131 81q46 -22 46 -48q-36 -48 -159 -115t-253 -67t-251 41t-287 113t-328 114q0 8 13 27t23 23q30 2 212 44 q-172 34 -273 180t-101 348zM302 534q0 -204 89 -336t253 -132q208 0 360 227t152 497q0 200 -88 330t-250 130q-216 0 -366 -223t-150 -493z" />
<glyph unicode="R" horiz-adv-x="1186" d="M48 10q0 38 14 38q24 0 72 13t56 31q22 54 52 192l164 828q10 52 10 100q0 24 -40 37t-66 13q-4 0 -4 14q0 30 14 40q86 -6 208 -6q56 0 125 3t125 3t114 -13t115 -42t93 -85t36 -132q0 -62 -27 -122t-64 -101t-86 -78t-83 -56t-62 -33q-18 -6 -10 -24q38 -132 98 -272 t106 -210q10 -16 20 -29t21 -22t20 -16t21 -11t18 -7t19 -4t17 -1h18h18q8 -20 8 -35q0 -13 -6 -21q-50 -10 -116 -10q-132 0 -218 130t-196 472q-10 28 -88 28q-64 0 -82 -5t-22 -29l-58 -310q-22 -110 -22 -180q0 -16 27 -29t53 -17l28 -4q4 0 4 -8q0 -22 -12 -46 q-186 10 -208 10q-6 0 -220 -10q-4 4 -4 16zM490 734q0 -30 94 -30q92 0 176 35t145 118t61 197q0 188 -220 188q-102 0 -129 -6t-31 -32l-96 -466v-4z" />
<glyph unicode="S" horiz-adv-x="870" d="M98 36q8 128 8 162t-2 92t-2 62q0 14 38 14q18 0 38 -16q0 -42 9 -84t34 -90t80 -77t133 -29q106 0 191 73t85 201q0 60 -48 117t-116 104t-137 96t-117 115t-48 140q0 180 131 298t317 118q52 0 134 -22t124 -26q-14 -110 -26 -222q-6 -58 -9 -68t-9 -10q-30 0 -46 12 q-4 2 -4 24q0 94 -61 160t-141 66q-114 0 -184 -69t-70 -173q0 -106 98 -184q38 -30 130 -94t133 -98t81 -97t40 -133q0 -62 -30 -132t-86 -133t-148 -104t-202 -41q-108 0 -318 48z" />
<glyph unicode="T" horiz-adv-x="1202" d="M232 1056l88 286q76 -22 126 -22q78 0 202 -6t202 -6t206 6t206 6q44 0 132 22l-20 -286q-18 -14 -46 -14q-18 0 -18 10q0 108 -39 143t-133 35q-198 0 -212 -30q-28 -60 -56 -200l-140 -722q-22 -110 -22 -180q0 -16 27 -29t53 -17l28 -4q4 0 4 -8q0 -22 -12 -46 q-184 10 -208 10q-4 0 -220 -10q-4 4 -4 16q0 38 14 38q24 0 72 13t56 31q30 68 52 192l138 710q26 138 26 194q0 14 -5 21t-51 14t-142 7q-106 0 -150 -33t-94 -145q-4 -10 -20 -10q-26 0 -40 14z" />
<glyph unicode="U" horiz-adv-x="1262" d="M240 412q0 74 28 212l78 400q22 114 22 184q0 22 -43 38t-69 16q-4 0 -4 10q0 28 16 44q24 -2 95 -7t121 -5q48 0 123 6t89 6v-6q0 -48 -14 -48q-16 0 -67 -16t-57 -30q-26 -56 -52 -186l-82 -434q-16 -88 -16 -170q0 -154 66 -241t196 -87q326 0 410 450l88 476 q24 140 24 180q0 24 -58 41t-92 17q-4 0 -4 12q0 32 14 42q24 -2 96 -7t120 -5q38 0 73 2t75 5t66 5q0 -54 -14 -54q-16 0 -78 -16t-72 -30q-16 -20 -54 -196l-90 -468q-62 -318 -192 -435t-374 -117q-174 0 -271 106t-97 306z" />
<glyph unicode="V" horiz-adv-x="1280" d="M240 1272q0 34 14 44q164 -8 210 -8q66 0 218 8v-6q0 -48 -14 -48q-70 0 -95 -17t-25 -57q0 -26 8 -64l154 -838l480 822q24 42 24 96q0 26 -34 42t-74 16q-4 0 -4 10q0 34 14 44q144 -8 186 -8q46 0 198 8v-12q-4 -42 -16 -42q-38 0 -86 -26t-78 -78l-652 -1120 q-38 -66 -76 -66q-10 0 -18 12l-198 1118q-12 68 -30 110q-10 22 -45 36t-57 14q-4 0 -4 10z" />
<glyph unicode="W" horiz-adv-x="1946" d="M226 1272q0 34 14 44q30 -2 89 -7t107 -5q36 0 72 2t77 5t67 5v-6q0 -48 -14 -48q-48 0 -76 -22t-28 -52q0 -18 14 -74l254 -890l242 366l-148 530q-16 56 -38 92q-12 20 -45 35t-53 15q-4 0 -4 10q0 32 16 44q26 -2 94 -7t118 -5q48 0 114 5t86 7v-6q0 -14 -5 -31 t-11 -17q-48 0 -75 -22t-27 -52q0 -26 12 -74l90 -322l170 276q50 82 50 118q0 38 -35 57t-57 19q-4 0 -4 10q0 34 14 44q174 -12 190 -12q56 0 119 6t81 6q0 -54 -14 -54q-32 0 -81 -24t-65 -42q-38 -42 -140 -200l-200 -308l136 -476l486 856q50 88 50 118q0 38 -35 57 t-57 19q-4 0 -4 10q0 34 14 44q174 -12 190 -12q56 0 119 6t81 6q0 -54 -14 -54q-32 0 -81 -24t-65 -42q-66 -76 -140 -200l-562 -958q-38 -64 -86 -64q-12 0 -16 10l-140 506l-292 -452q-42 -64 -84 -64q-10 0 -16 10l-284 1036q-34 120 -70 192q-10 20 -43 35t-53 15 q-4 0 -4 10z" />
<glyph unicode="X" horiz-adv-x="1312" d="M20 2q0 46 10 46q16 0 43 3t71 18t66 39q502 558 502 564l-156 368q-36 86 -54 116t-56 62q-18 16 -56 30t-56 14q-4 0 -4 10q0 34 14 44q24 -2 102 -7t132 -5q18 0 246 12v-8q0 -46 -12 -46q-16 0 -42 -6t-56 -26t-30 -48q0 -22 10 -48q148 -336 150 -336q4 0 88 90 t169 190t85 122q0 26 -38 44t-78 18q-4 0 -4 10q0 34 14 44q204 -12 222 -12q42 0 79 2t77 5t66 5v-6q0 -48 -14 -48q-24 0 -96 -18t-96 -44q-438 -486 -438 -490q0 -2 54 -130t116 -271t78 -171q28 -48 89 -69t91 -21q4 0 4 -10q0 -32 -6 -44q-186 10 -222 10 q-4 0 -268 -10q-4 4 -4 16q0 38 14 38q24 0 67 18t43 46q0 26 -4 36q-182 434 -184 434t-100 -111t-197 -229t-99 -134q0 -60 110 -60q8 0 8 -18q0 -26 -10 -36q-34 2 -206 2q-194 0 -232 -2q-2 2 -2 8z" />
<glyph unicode="Y" horiz-adv-x="1186" d="M240 1272q0 34 14 44q24 -2 102 -7t132 -5q20 0 248 12v-10q0 -44 -14 -44q-30 0 -78 -21t-48 -63q0 -20 8 -44l138 -424q26 34 91 118t100 131t79 107t64 92t20 42q-2 26 -43 44t-81 18q-4 0 -4 12q0 32 14 42q16 0 80 -6t104 -6q10 0 238 12q2 -4 2 -10q0 -44 -14 -44 q-20 0 -79 -19t-83 -43t-241 -317t-221 -313l-56 -292q-22 -110 -22 -180q0 -16 27 -29t55 -17l26 -4q4 0 4 -8q0 -22 -12 -46q-186 10 -208 10q-6 0 -222 -10q-2 2 -2 14q0 40 14 40q22 0 70 14t58 30q24 42 50 180l52 284q2 8 -40 141t-86 263l-42 130q-30 92 -78 128 q-20 14 -58 29t-54 15q-4 0 -4 10z" />
<glyph unicode="Z" horiz-adv-x="1092" d="M72 34q0 32 16 52l932 1130h-86h-75h-83t-76 -1t-58 -1h-24q-128 -2 -184 -54t-120 -192q-6 -8 -20 -8q-36 0 -54 18q26 70 112 352q18 -6 140 -12t154 -6q92 -2 216 -2q68 0 116 2t74 4t83 7t109 9q4 -2 6 -31q1 -14 1 -23t-1 -12q-2 -8 -230 -286t-456 -552l-226 -276 q-16 -18 -16 -34t20 -16h420q32 0 61 4t51 15t40 19t34 26t26 28t22 31t15 28t13 28t10 23q6 16 54 16q20 0 28 -12q-70 -172 -114 -308h-922q-8 14 -8 34z" />
<glyph unicode="[" horiz-adv-x="614" d="M-18 -158l308 1592q0 4 4 13t15 21t27 12q90 0 196 8l104 10q10 0 10 -12q0 -10 -3 -20t-8 -18t-12 -15t-12 -11t-9 -6l-4 -4q-92 -22 -192 -22q-6 0 -10 -4t-4 -8l-2 -4l-288 -1472q-2 -16 10 -16q44 0 89 -9t67 -17l24 -8l4 -2q4 -2 6 -5t5 -9t3 -15t-2 -25 q-2 -10 -6 -16t-6 -8h-4q-132 24 -284 24q-26 0 -26 34v12z" />
<glyph unicode="\" horiz-adv-x="424" d="M12 1510q24 12 40 12q78 0 82 -44l252 -1452q2 -6 2 -16q0 -32 -17 -59t-41 -29l-46 4z" />
<glyph unicode="]" horiz-adv-x="598" d="M-34 -210q0 22 40 62q98 34 192 34q6 0 10 4t6 8l2 4l286 1472q2 16 -10 16q-44 0 -90 5t-70 11l-24 6q-24 24 -24 44q0 42 16 42l16 -2q18 -2 46 -5t64 -5t81 -4t89 -2q26 0 26 -30q0 -10 -2 -16l-308 -1592q0 -4 -3 -13t-14 -21t-27 -12q-68 0 -141 -6t-113 -12l-40 -6 q-8 6 -8 18z" />
<glyph unicode="^" horiz-adv-x="606" d="M26 998q4 8 56 51t128 125t138 180l5 10l4 8t3 4t5 3t7 1q20 0 26 -13t25 -69t51 -122q12 -26 42 -68t53 -73t23 -35q-4 -16 -14 -33t-20 -17q-28 0 -105 93t-109 151q-66 -78 -174 -161t-128 -83q-16 0 -16 48z" />
<glyph unicode="_" horiz-adv-x="970" d="M18 -74q0 10 19 55t29 45h828q12 0 12 -8q0 -12 -36 -92l-12 -12h-830q-10 0 -10 12z" />
<glyph unicode="`" horiz-adv-x="324" d="M40 1318q0 10 5 21t26 23t53 12q50 0 60 -18q24 -38 54 -106t48 -118l18 -48q0 -10 -9 -20t-19 -10q-22 0 -129 105t-107 159z" />
<glyph unicode="a" horiz-adv-x="880" d="M132 260q0 142 85 285t219 234t268 91q76 0 146 -26l-122 -632q-6 -24 -6 -50q0 -50 20 -50q12 0 29 11t34 27t31 31t26 27l12 14q4 0 15 -19t11 -27q-26 -44 -108 -116t-144 -72q-32 0 -50 29t-18 75q0 34 14 106q4 22 7 35t3 17q-20 -36 -46 -73t-66 -83t-85 -75 t-85 -29q-88 0 -139 79t-51 191zM280 302q0 -196 102 -196q72 0 161 146t119 296l40 204q-24 26 -82 26q-118 0 -229 -153t-111 -323z" />
<glyph unicode="b" horiz-adv-x="788" d="M154 208q0 30 6 66l166 844q18 82 18 106q0 38 -122 38q-6 0 -6 12q0 24 16 40q130 12 252 56q12 -6 12 -38q0 -24 -26 -150l-118 -576q64 106 134 170t108 79t64 15q88 0 133 -78t45 -184q0 -256 -156 -438t-328 -182q-76 0 -137 57t-61 163zM300 312q-10 -48 -10 -88 q0 -51 16 -88q28 -66 98 -66q76 0 143 77t104 190t37 223q0 38 -2 64t-9 62t-27 55t-50 19q-42 0 -107 -75t-121 -181t-72 -192z" />
<glyph unicode="c" horiz-adv-x="652" d="M136 292q0 192 146 385t298 193q94 0 174 -68q6 -24 6 -40q0 -38 -19 -62t-51 -24t-66 56t-68 56q-86 0 -179 -139t-93 -325q0 -212 132 -212q16 0 31 4t29 10t28 13t26 17t23 18t20 17t14 15t9 10l6 6q4 0 15 -19t11 -27q-28 -48 -112 -118t-166 -70q-104 0 -159 81 t-55 223z" />
<glyph unicode="d" horiz-adv-x="926" d="M146 260q0 216 184 413t384 197q50 0 10 0h16l56 298q6 28 6 56q0 38 -122 38q-6 0 -6 12q0 24 16 40q138 12 258 56q12 -8 12 -38l-30 -150l-188 -970q-6 -24 -6 -50q0 -50 20 -50q12 0 29 11t34 27t31 31t26 27l12 14q4 0 15 -19t11 -27q-26 -44 -108 -116t-144 -72 q-32 0 -50 29t-18 75q0 32 14 106q4 16 6 27t4 16t2 11q-26 -46 -61 -96t-101 -108t-120 -58q-92 0 -142 79t-50 191zM294 300q0 -194 102 -194q74 0 162 147t118 299l24 130q3 13 3 24q0 23 -11 43q-16 29 -54 29q-122 0 -233 -153t-111 -325z" />
<glyph unicode="e" horiz-adv-x="718" d="M140 292q0 192 146 385t298 193q92 0 133 -47t41 -103q0 -88 -90 -174t-197 -133t-173 -47q-8 0 -8 -70q0 -90 35 -137t95 -47q16 0 31 4t29 10t28 13t26 17t23 18t20 17t14 15t9 10l6 6q4 0 15 -19t11 -27q-28 -48 -112 -118t-166 -70q-104 0 -159 81t-55 223zM304 444 q0 -8 8 -8q72 0 187 96t115 196q0 60 -50 60q-94 0 -177 -135t-83 -209z" />
<glyph unicode="f" horiz-adv-x="608" d="M-240 -380v7q0 42 22 75q24 36 60 36q18 0 34 -19t28 -42t35 -42t51 -19q38 0 76 47t65 118t46 135t27 114l120 678v4q0 10 -6 10h-130q-4 0 -4 6q0 18 32 52t64 34h58q8 0 12 18q40 246 172 406t284 160q128 0 164 -68q0 -130 -72 -130q-28 0 -53 30t-52 61t-59 31 q-64 0 -136 -131t-112 -365v-4q0 -8 6 -8h230q10 0 10 -24q0 -32 -22 -68h-234q-10 0 -12 -16l-110 -598q-48 -278 -169 -424t-263 -146q-70 0 -110 25t-52 57z" />
<glyph unicode="g" horiz-adv-x="876" d="M32 -270q0 48 26 93t75 81t91 60t96 48l-36 24q-50 34 -50 72q0 34 71 78t129 58q-38 0 -87 20t-94 73t-45 125q0 168 117 289t261 121q60 0 132 -27t140 -27h86q12 0 12 -16q0 -14 -7 -34t-15 -28h-112q-12 0 -12 -12q12 -72 12 -104q0 -74 -21 -137t-56 -103t-58 -60 t-47 -34q-20 -12 -81 -41t-95 -52t-34 -43q0 -18 39 -35t96 -36t113 -47t95 -78t39 -114q0 -142 -127 -226t-341 -84q-138 0 -225 52t-87 144zM180 -220q0 -160 262 -160q98 0 170 41t72 103q0 44 -25 81t-73 64t-87 42t-95 33q-38 -16 -55 -24t-57 -30t-59 -40t-36 -48 t-17 -62zM358 494q0 -78 32 -130t90 -52q84 0 139 88t55 188q0 80 -32 144t-88 64q-86 0 -141 -95t-55 -207z" />
<glyph unicode="h" horiz-adv-x="922" d="M132 0l216 1118q18 88 18 106q0 38 -122 38q-6 0 -6 12q0 24 16 40q132 12 252 56q12 -6 12 -38q0 -16 -26 -150l-102 -522l-36 -184q20 36 87 124t164 179t157 91q100 0 100 -132q0 -90 -28 -218l-66 -308q-6 -24 -6 -50q0 -50 20 -50q12 0 29 11t34 27t31 31t26 27 l12 14q4 0 15 -19t11 -27q-26 -44 -108 -116t-144 -72q-32 0 -50 29t-18 75q0 32 14 106l70 330q14 66 14 108q0 86 -38 86q-66 0 -205 -181t-179 -385l-34 -156q-26 -8 -62 -8t-68 8z" />
<glyph unicode="i" horiz-adv-x="548" d="M186 698q24 40 101 106t129 66q32 0 50 -29t18 -75q0 -42 -12 -106l-88 -448q-6 -24 -6 -50q0 -50 20 -50q12 0 29 11t34 27t31 31t26 27l12 14q4 0 15 -19t11 -27q-26 -44 -108 -116t-144 -72q-32 0 -50 29t-18 75q0 32 14 106l82 418q10 62 10 80q0 50 -20 50 q-8 0 -22 -9t-29 -23t-27 -26t-22 -24l-10 -12q-4 0 -15 19t-11 27zM370 1178q0 46 30 80t74 34q30 0 51 -24t21 -56q0 -48 -31 -84t-77 -36q-32 0 -50 25t-18 61z" />
<glyph unicode="j" horiz-adv-x="580" d="M-24 -430q100 58 176 183t108 291l114 572q10 72 10 80q0 50 -20 50q-8 0 -22 -9t-29 -23t-27 -26t-22 -24l-10 -12q-4 0 -15 19t-11 27q24 40 101 106t129 66q32 0 50 -29t18 -75q0 -40 -12 -106l-110 -570q-42 -216 -132 -338q-56 -76 -136 -137t-142 -85 q-18 14 -18 40zM412 1178q0 46 30 80t74 34q30 0 51 -24t21 -56q0 -48 -31 -84t-77 -36q-32 0 -50 25t-18 61z" />
<glyph unicode="k" horiz-adv-x="970" d="M172 0l218 1118q18 82 18 106q0 38 -122 38q-6 0 -6 12q0 24 16 40q130 12 252 56q12 -6 12 -38q0 -24 -26 -150l-104 -538l22 26q22 26 53 57t72 65t92 56t99 22q60 0 105 -39t45 -97q0 -130 -115 -214t-295 -114q120 -180 183 -238t107 -58q36 0 69 30t49 58 q6 0 19 -16t13 -24q-10 -34 -74 -100t-122 -66q-26 0 -51 8t-50 26t-46 34t-46 48t-41 51t-41 59l-35 56t-34 58t-30 50l-74 -382q-36 -10 -66 -10q-26 0 -66 10zM410 464q0 -4 4 -4q8 0 21 2t50 9t72 17t76 29t71 42t51 57t21 74q0 86 -80 86q-64 0 -175 -134t-111 -178z " />
<glyph unicode="l" horiz-adv-x="496" d="M172 92q0 34 14 106l188 970q6 30 6 56q0 38 -122 38q-6 0 -6 12q0 24 16 40q136 12 256 56q12 -6 12 -38q0 -24 -26 -150l-190 -970q-6 -24 -6 -50q0 -50 20 -50q12 0 29 11t35 27t32 31t25 28l11 13q6 0 16 -19t10 -27q-26 -44 -108 -116t-144 -72q-30 0 -49 29t-19 75 z" />
<glyph unicode="m" horiz-adv-x="1432" d="M174 698q24 40 101 106t129 66q32 0 50 -29t18 -75q0 -44 -12 -106l-36 -186q74 128 185 262t181 134q54 0 83 -32t35 -67t6 -91q0 -34 -28 -178q66 114 185 241t189 127q66 0 90 -33t24 -99q0 -90 -28 -218l-66 -308q-6 -24 -6 -50q0 -50 20 -50q12 0 29 11t34 27t31 31 t26 27l12 14q4 0 15 -19t11 -27q-26 -44 -108 -116t-144 -72q-32 0 -50 29t-18 75q0 32 14 106l70 330q14 66 14 108q0 30 -2 46t-10 28t-26 12q-68 0 -201 -174t-167 -358l-36 -190q-8 0 -31 -3t-39 -3t-37 3t-27 3l112 568q8 42 8 76q0 78 -40 78q-70 0 -200 -190 t-164 -356l-36 -176q-52 -8 -68 -8q-14 0 -66 8l120 616q10 72 10 80q0 50 -20 50q-8 0 -22 -9t-29 -23t-27 -26t-22 -24l-10 -12q-4 0 -15 19t-11 27z" />
<glyph unicode="n" horiz-adv-x="984" d="M170 698q24 40 101 106t129 66q32 0 50 -29t18 -75q0 -44 -12 -106l-36 -184q20 36 87 124t164 179t157 91q100 0 100 -132q0 -90 -28 -218l-66 -308q-6 -24 -6 -50q0 -50 20 -50q12 0 29 11t34 27t31 31t26 27l12 14q4 0 15 -19t11 -27q-26 -44 -108 -116t-144 -72 q-32 0 -50 29t-18 75q0 32 14 106l70 330q14 66 14 108q0 86 -38 86q-66 0 -205 -181t-179 -385l-34 -156q-26 -8 -62 -8t-68 8l118 616q10 72 10 80q0 50 -20 50q-8 0 -22 -9t-29 -23t-27 -26t-22 -24l-10 -12q-4 0 -15 19t-11 27z" />
<glyph unicode="o" horiz-adv-x="824" d="M136 290q0 208 144 394t296 186q118 0 183 -82t65 -226q0 -206 -145 -389t-297 -183q-120 0 -183 78t-63 222zM288 316q0 -116 37 -180t93 -64q100 0 177 157t77 317q0 118 -32 180t-88 62q-100 0 -182 -157t-82 -315z" />
<glyph unicode="p" horiz-adv-x="880" d="M0 -454q0 30 8 42q54 0 80 32q22 28 32 86l158 816l-96 -96q-12 14 -12 40q0 8 6 14l118 126l52 260q30 8 66 8t64 -14q-18 -84 -22 -112q40 36 65 56t78 43t109 23q92 0 142 -79t50 -191q0 -138 -88 -283t-208 -235t-214 -90q-50 0 -80 16l-56 -298q-6 -26 -6 -56 q0 -38 28 -46q26 -6 94 -6q4 0 4 -12q0 -30 -10 -44q-14 0 -37 1t-33 1q-136 0 -286 -18q-6 2 -6 16zM348 206q-3 -15 -3 -30q0 -29 11 -54q16 -38 70 -38q116 0 220 152t104 324q0 194 -124 194q-118 0 -192 -106z" />
<glyph unicode="q" horiz-adv-x="830" d="M158 260q0 142 86 285t220 234t268 91q90 0 160 -26l-122 -632l-90 -506q-4 -32 -4 -42q0 -18 4 -29t26 -21t62 -10q4 0 4 -12q0 -32 -10 -48q-14 0 -41 1t-39 1q-142 0 -290 -16q0 2 -1 11t-1 13q0 36 10 36q18 0 39 3t58 32t47 81l102 544q-28 -48 -70 -101t-108 -106 t-118 -53q-88 0 -140 79t-52 191zM306 318q0 -212 104 -212q74 0 169 147t125 295l40 204q-24 26 -98 26q-130 0 -235 -149t-105 -311z" />
<glyph unicode="r" horiz-adv-x="744" d="M184 698q24 40 101 106t129 66q32 0 50 -29t18 -75q0 -44 -12 -106l-32 -168q50 118 149 248t167 130t110 -64q0 -134 -74 -134q-16 0 -38 25t-46 25q-58 0 -173 -174t-145 -338l-38 -210q-34 -6 -66 -6q-38 0 -74 6l120 616q10 72 10 80q0 50 -20 50q-8 0 -22 -9 t-29 -23t-27 -26t-22 -24l-10 -12q-4 0 -15 19t-11 27z" />
<glyph unicode="s" horiz-adv-x="640" d="M134 102q0 36 19 64t49 28q28 0 50 -29t55 -59t87 -30q44 0 71 29t27 63q0 52 -39 111t-85 105t-85 112t-39 134q0 84 80 165t198 81q114 0 180 -76q10 -24 10 -42q0 -36 -19 -62t-49 -26q-28 0 -50 29t-55 59t-87 30q-42 0 -66 -28t-24 -64q0 -52 39 -111t85 -105 t85 -112t39 -134q0 -110 -80 -178t-206 -68q-114 0 -180 76q-10 16 -10 38z" />
<glyph unicode="t" horiz-adv-x="524" d="M182 778q0 26 24 62h140l48 244q6 20 98 20q24 0 36 -2l-50 -262h182q10 0 10 -26q0 -24 -18 -58h-190l-106 -544q-6 -24 -6 -50q0 -50 20 -50q12 0 29 11t34 27t31 31t26 27l12 14q4 0 15 -19t11 -27q-26 -44 -108 -116t-144 -72q-32 0 -50 29t-18 75q0 32 14 106 l108 558h-142q-6 0 -6 22z" />
<glyph unicode="u" horiz-adv-x="944" d="M150 698q24 40 101 106t129 66q32 0 50 -29t18 -75q0 -54 -12 -106l-70 -330q-14 -58 -14 -108q0 -86 38 -86q28 0 80 47t109 122t108 183t71 214l34 156q26 8 62 8t68 -8l-124 -646q-6 -24 -6 -50q0 -50 20 -50q12 0 29 11t34 27t31 31t26 27l12 14q4 0 15 -19t11 -27 q-26 -44 -108 -116t-144 -72q-32 0 -50 29t-18 75q0 32 14 106l36 184q-20 -38 -82 -124t-156 -178t-154 -92q-100 0 -100 132q0 92 28 218l60 278q10 72 10 80q0 50 -20 50q-8 0 -22 -9t-29 -23t-27 -26t-22 -24l-10 -12q-4 0 -15 19t-11 27z" />
<glyph unicode="v" horiz-adv-x="832" d="M158 698q24 40 101 106t129 66q32 0 50 -29t18 -75q0 -42 -12 -106l-60 -306q-16 -96 -16 -126q0 -56 18 -80t64 -24q92 0 215 183t123 311q0 42 -29 90t-29 72q0 36 24 63t58 27q38 0 64 -16q28 -52 28 -116q0 -166 -97 -344t-221 -286t-212 -108q-68 0 -108 49t-40 127 q0 56 8 88l68 352q12 42 12 80q0 50 -20 50q-8 0 -22 -9t-29 -23t-27 -26t-22 -24l-10 -12q-4 0 -15 19t-11 27z" />
<glyph unicode="w" horiz-adv-x="1264" d="M158 698q24 40 101 106t129 66q32 0 50 -29t18 -75q0 -42 -12 -106l-60 -306q-16 -96 -16 -126q0 -56 18 -80t64 -24q44 0 103 52t113 132q48 394 66 462q26 100 80 100q76 0 76 -94q0 -130 -82 -354q-14 -100 -14 -128q0 -96 17 -133t65 -37q60 0 135 89t126 206t51 199 q0 42 -29 90t-29 72q0 36 24 63t58 27q38 0 64 -16q28 -52 28 -116q0 -126 -54 -263t-132 -239t-166 -169t-152 -67q-70 0 -109 49t-39 133q-158 -182 -276 -182q-68 0 -108 49t-40 127q0 56 8 88l68 352q12 42 12 80q0 50 -20 50q-8 0 -22 -9t-29 -23t-27 -26t-22 -24 l-10 -12q-4 0 -15 19t-11 27z" />
<glyph unicode="x" horiz-adv-x="952" d="M96 80q0 30 21 51t43 21q26 0 59 -31t61 -31q24 0 54 52l158 272l-82 268q-20 68 -54 68q-30 0 -64 -31t-48 -57q-8 0 -20 16t-12 24q6 34 74 101t130 67q84 0 136 -174l42 -142l118 202q66 114 168 114q68 0 116 -40q16 -32 16 -52q0 -30 -21 -51t-43 -21q-26 0 -59 31 t-61 31q-24 0 -54 -52l-150 -256l86 -282q20 -68 54 -68q30 0 64 31t48 57q8 0 20 -16t12 -24q-6 -34 -74 -101t-130 -67q-84 0 -136 174l-46 156l-126 -218q-66 -114 -168 -114q-68 0 -116 40q-16 28 -16 52z" />
<glyph unicode="y" horiz-adv-x="958" d="M-54 -384q0 64 46 88q44 -26 134 -26q166 0 288 178q46 68 46 268q0 98 -5 195t-18 199t-38 165t-59 63q-18 0 -54 -34t-56 -60q-4 0 -15 19t-11 27q12 30 95 101t133 71q60 0 99 -102t53 -267t18 -258t4 -187q78 96 156 245t78 269q0 118 -50 214q26 86 100 86 q88 0 88 -158q0 -220 -172 -505t-389 -479t-351 -194q-52 0 -86 24t-34 58z" />
<glyph unicode="z" horiz-adv-x="808" d="M100 52q0 14 149 178t299 324l148 160l-12 -10q-14 -8 -34 -18t-34 -10q-56 0 -140 36t-112 36q-16 0 -33 -12t-32 -31t-26 -37t-21 -36t-12 -20q-10 -10 -18 6t-10 34q16 52 77 135t121 83q20 0 128 -25t174 -25q28 0 66 25t66 25q24 0 24 -50q0 -12 -150 -177 t-298 -325l-150 -160q0 -2 14 7t34 19t34 10q56 0 140 -36t112 -36q16 0 33 12t32 31t27 36t22 36t12 21q8 10 17 -6t11 -32q-16 -52 -78 -136t-122 -84q-20 0 -128 26t-174 26q-28 0 -66 -26t-66 -26q-24 0 -24 52z" />
<glyph unicode="{" horiz-adv-x="550" d="M6 24q0 92 41 174t82 148t41 120q0 20 -7 35t-15 25t-26 20t-28 14t-35 13t-33 11v12q0 38 16 62q50 14 77 24t60 31t48 55t15 82q0 38 -17 121t-17 127q0 132 102 267t266 135q6 0 6 -8q0 -12 -10 -30t-20 -20q-16 -2 -49 -16t-77 -43t-76 -90t-32 -139q0 -38 11 -110 t11 -116q0 -140 -66 -225t-132 -87q46 -2 82 -50t36 -122q0 -82 -43 -158t-86 -147t-43 -139q0 -76 50 -132t96 -60q14 -4 14 -32q0 -26 -12 -26q-102 0 -166 76t-64 198z" />
<glyph unicode="|" horiz-adv-x="406" d="M-22 -230l338 1744q32 32 88 32q12 0 22 -4t8 -10l-336 -1744q-12 -12 -38 -23t-54 -11q-10 0 -20 5t-8 11z" />
<glyph unicode="}" horiz-adv-x="536" d="M-34 -242q0 12 11 30t21 20q58 4 146 84t88 202q0 40 -20 110t-20 118q0 124 70 208t138 86q-44 2 -76 48t-32 118q0 100 84 254t84 226q0 74 -50 125t-96 55q-14 4 -14 32q0 26 12 26q104 0 171 -67t67 -187q0 -76 -27 -148t-60 -117t-60 -100t-27 -101q0 -38 24 -63 t48 -35t70 -24q2 -4 2 -16q0 -30 -14 -58q-8 -2 -35 -10t-40 -12t-37 -15t-36 -23t-27 -29t-21 -42t-6 -55q0 -38 17 -118t17 -122q0 -136 -110 -272t-256 -136q-6 0 -6 8z" />
<glyph unicode="~" horiz-adv-x="946" d="M38 538q0 56 95 113t181 57q88 0 208 -53t208 -53q34 0 70 15t53 27t63 46q12 -12 12 -20q0 -50 -85 -110t-185 -60q-88 0 -211 53t-211 53q-34 0 -70 -15t-53 -27t-63 -46q-12 12 -12 20z" />
<glyph unicode="&#xa1;" horiz-adv-x="394" d="M-32 -446q0 32 66 286q88 344 172 672q4 20 14 34t18 10q34 -18 34 -42q-120 -912 -122 -926q-10 -52 -39 -89t-69 -37q-36 0 -55 26t-19 66zM184 738q0 56 40 99t90 43q38 0 62 -27t24 -67q0 -56 -40 -97t-90 -41q-38 0 -62 25t-24 65z" />
<glyph unicode="&#xa2;" horiz-adv-x="638" d="M114 304q0 208 151 387t305 179q44 0 91 -20t71 -48q4 -16 4 -44q0 -36 -23 -59t-57 -23q-32 0 -70 58t-66 58q-82 0 -170 -141t-88 -327q0 -46 8 -87t42 -82t92 -41q42 0 89 35t69 62t30 43q4 0 11 -16t9 -28q0 -44 -85 -131t-171 -87q-90 0 -148 55t-76 120t-18 137z M234 -72l352 1020q64 0 62 -16l-352 -1022q-64 0 -62 18z" />
<glyph unicode="&#xa3;" horiz-adv-x="876" d="M88 20q24 34 63 80t53 64q46 72 94 334q4 18 24 166t26 182q36 188 154 306t268 118q98 0 128 -74q-6 -40 -26 -79t-52 -39q-38 0 -70 54t-70 54q-44 0 -78 -25t-56 -74t-34 -93t-24 -106q-8 -38 -32 -200t-26 -172q-40 -198 -152 -348q46 18 138 18q54 0 151 -32 t129 -32q28 0 56 19t42 35t39 52t27 40q18 0 18 -34q0 -10 -4 -18q-126 -232 -264 -232q-64 0 -181 37t-159 37q-64 0 -154 -76q-16 0 -23 13t-5 25zM196 584q6 32 22 54h496q10 0 6 -20q-6 -40 -40 -60h-480q-10 0 -4 26z" />
<glyph unicode="&#xa4;" horiz-adv-x="894" d="M4 308l120 102q-24 58 -24 126q0 174 124 310l-74 112q0 2 -1 2t-1 2q0 16 34 43t66 35l74 -110q96 62 202 62q116 0 192 -82l132 110q2 2 8 2q16 0 33 -29t19 -61l-134 -112q22 -60 22 -126q0 -160 -112 -296l78 -116q0 -2 1 -2t1 -2q0 -16 -34 -43t-66 -35l-74 110 q-102 -70 -212 -70q-120 0 -196 80l-118 -100q-2 -2 -8 -2q-16 0 -33 29t-19 61zM240 546q0 -106 46 -174t120 -68q100 0 176 118t76 260q0 106 -46 175t-118 69q-100 0 -177 -119t-77 -261z" />
<glyph unicode="&#xa5;" horiz-adv-x="1222" d="M286 1252q4 24 12 32q28 -2 95 -7t119 -5q14 0 236 12q2 -10 -4 -32t-12 -22q-32 0 -73 -16t-47 -48q-4 -14 8 -58l122 -412q10 -12 20 4q322 396 336 468q4 22 -27 42t-85 20q-4 2 -4 12t4 24t10 18q18 -2 75 -7t95 -5q36 0 258 12q0 -20 -2 -30q-4 -24 -12 -24 q-24 0 -92 -17t-92 -41q-102 -130 -272 -356t-176 -252l-10 -56h170q10 0 4 -26q-6 -30 -20 -50h-170l-14 -80h170q10 0 4 -26q-6 -30 -20 -50h-170q-24 -126 -22 -184q2 -14 43 -29t57 -15q8 0 4 -24q-4 -20 -10 -30q-180 10 -198 10q-8 0 -214 -10q-6 14 -4 26q4 28 14 28 q22 0 68 14t56 30q26 60 50 184h-172q-10 0 -4 26q4 28 22 50h168l16 80h-170q-10 0 -4 26q6 30 20 50h170q8 24 4 32q0 32 -160 524q-22 70 -56 124q-12 18 -50 30t-62 12q-6 0 -2 22z" />
<glyph unicode="&#xa6;" horiz-adv-x="406" d="M-22 -230l140 726q32 32 88 32q12 0 22 -4t8 -10l-138 -726q-12 -12 -38 -23t-54 -11q-10 0 -20 5t-8 11zM174 782l140 726q32 32 88 32q12 0 22 -4t8 -10l-138 -726q-30 -34 -90 -34q-10 0 -21 5t-9 11z" />
<glyph unicode="&#xa7;" horiz-adv-x="696" d="M18 -54q4 54 26 88t58 34q24 0 40 -31t37 -61t59 -30q60 0 105 55t45 129q0 58 -35 105t-85 81t-100 69t-85 89t-35 122q0 200 168 332q0 4 -1 14t-1 14q0 138 86 243t244 105q114 0 144 -74q-10 -120 -84 -120q-24 0 -40 29t-38 59t-60 30q-60 0 -105 -53t-45 -129 q0 -58 35 -105t85 -81t100 -69t85 -89t35 -122q0 -204 -166 -330q0 -4 1 -13t1 -15q0 -130 -80 -239t-248 -109q-118 0 -146 72zM152 708q0 -64 42 -116t95 -82t109 -81t78 -111q76 54 76 152q0 64 -42 115t-94 81t-108 81t-78 111q-52 -40 -68 -80q-10 -32 -10 -70z" />
<glyph unicode="&#xa8;" horiz-adv-x="570" d="M38 1042q0 46 29 79t73 33q30 0 52 -24t22 -56q0 -48 -31 -84t-77 -36q-32 0 -50 26t-18 62zM376 1042q0 46 29 79t73 33q30 0 52 -24t22 -56q0 -48 -31 -84t-77 -36q-32 0 -50 26t-18 62z" />
<glyph unicode="&#xa9;" horiz-adv-x="1094" d="M48 572q0 258 192 458t432 200q182 0 297 -123t115 -311q0 -258 -193 -458t-433 -200q-182 0 -296 123t-114 311zM108 584q0 -166 102 -275t262 -109q210 0 382 177t172 405q0 166 -103 276t-263 110q-210 0 -381 -178t-171 -406zM292 614q0 134 98 243t228 109 q116 0 200 -38q4 -8 4 -16q2 -28 2 -100q0 -24 -32 -24q-8 0 -12 4q0 12 -6 28t-20 35t-47 31t-79 12q-86 0 -156 -79t-70 -189q0 -84 47 -130t109 -46q42 0 75 8t51 23t28 26t18 28t10 19q4 2 8 2l28 -8q-6 -16 -30 -68t-32 -56q-94 -38 -204 -38q-96 0 -157 63t-61 161z " />
<glyph unicode="&#xaa;" horiz-adv-x="638" d="M54 644q0 160 143 314t269 154q94 0 114 -20l-76 -402q-6 -32 -6 -58q0 -52 30 -52q16 0 52 52l36 50q8 0 14 -30q-14 -38 -59 -95t-91 -57q-78 0 -78 102q0 22 6 58l4 34l-2 4q-2 0 -2 -1v-3q-24 -52 -99 -124t-135 -72q-120 0 -120 146zM172 676q0 -96 60 -96 q44 0 116 103t90 201l26 142q0 2 1 8t1 8q0 18 -10 18q-90 0 -187 -136t-97 -248z" />
<glyph unicode="&#xab;" horiz-adv-x="832" d="M8 474q0 38 24 62q110 62 221 140t163 119t62 51q34 -10 34 -32q0 -10 -3 -15t-34 -34t-103 -89q-28 -24 -103 -95t-95 -87q48 -72 90 -131t64 -85t38 -46t21 -29t5 -19q0 -8 -8 -16t-18 -12t-18 -8l-10 -2q-22 34 -118 130t-204 178q-8 6 -8 20zM342 474q0 38 24 62 q106 60 215 136t158 115t71 59q36 -12 36 -32q0 -10 -3 -15t-34 -34t-103 -89q-28 -24 -103 -95t-95 -87l126 -180q16 -22 36 -47t30 -38t17 -26t7 -21t-7 -15t-15 -10t-18 -7t-12 -4q-22 34 -118 130t-204 178q-8 6 -8 20z" />
<glyph unicode="&#xac;" horiz-adv-x="948" d="M38 764q0 26 14 51t28 25h828q22 0 18 -22l-94 -480q-18 -18 -84 -18q-12 0 -21 4t-7 12l74 372v2q0 18 -20 18h-730q-6 24 -6 36z" />
<glyph unicode="&#xad;" horiz-adv-x="590" d="M38 428q0 20 14 56t28 38l454 24q12 0 12 -24q0 -22 -16 -61t-30 -41l-452 -22q-10 0 -10 30z" />
<glyph unicode="&#xae;" horiz-adv-x="1094" d="M69 814q43 226 223 386t391 160t329 -160t75 -386t-224 -387t-392 -161t-328 161t-74 387zM131 814q-39 -200 65 -342t289 -142t345 142t199 342t-66 341t-290 141t-344 -141t-198 -341zM290 560q0 2 3 5t3 5l36 6t19 11t8 13t5 25t6 35l66 338q8 44 8 58q0 12 -15 19 t-29 7q-4 0 -4 4t3 11t3 9q12 0 40 -3t46 -3q28 0 71 4t69 4q62 0 105 -32t43 -90q0 -100 -116 -158q-2 -2 -2 -6v-2q8 -44 64 -154q18 -34 28 -51t28 -30t38 -13q0 -14 -4 -22q-12 -6 -36 -6q-84 0 -121 44t-101 208q-6 18 -34 18q-22 0 -26 -16l-34 -178v-22q0 -14 6 -16 q24 -12 38 -12q2 0 2 -6q0 -4 -4 -20q-76 4 -100 4q-26 0 -110 -4q0 4 -1 8t-1 8zM508 880q0 -24 76 -24q46 0 73 38t27 88q0 76 -76 76q-64 0 -68 -20l-28 -150q0 -2 -2 -5z" />
<glyph unicode="&#xaf;" horiz-adv-x="522" d="M50 1116q0 16 12 41t24 35h396q16 0 16 -36q0 -18 -13 -45t-23 -33h-402q-10 0 -10 38z" />
<glyph unicode="&#xb0;" horiz-adv-x="402" d="M28 1034q0 94 71 164t153 70q66 0 108 -45t42 -113q0 -92 -70 -164t-154 -72q-66 0 -108 46t-42 114zM100 1048q0 -42 25 -71t67 -29q52 0 95 45t43 103q0 42 -25 70t-67 28q-54 0 -96 -43t-42 -103z" />
<glyph unicode="&#xb1;" horiz-adv-x="994" d="M-16 90q0 38 44 94h860q8 0 8 -18q0 -48 -42 -94h-860q-10 0 -10 18zM100 684q0 38 44 94h356q8 0 8 8q12 58 32 181t34 195q4 18 48 27t64 9q12 0 17 -5t3 -13q-46 -268 -70 -392q-4 -10 6 -10h362q8 0 8 -18q0 -48 -42 -94h-358q-8 0 -8 -8l-70 -376q-2 -16 -36 -26 t-64 -10q-16 0 -24 6t-6 12q50 280 72 392q0 10 -8 10h-358q-10 0 -10 18z" />
<glyph unicode="&#xb2;" horiz-adv-x="604" d="M18 546q0 14 8 28q32 30 93 89t92 88t78 77t71 77t50 65t37 64t11 54q0 40 -23 70t-69 30q-26 0 -95 -43t-71 -43q-4 0 -10 16t-6 26q0 12 6 24q24 34 101 80t149 46q74 0 120 -48t46 -120q0 -86 -66 -178t-144 -154t-144 -112t-66 -60q0 -2 2 -2h254q28 0 49 18t33 37 t16 19q18 0 30 -8q-14 -26 -26 -54t-26 -66t-22 -58l-224 2l-244 -2q-10 4 -10 38z" />
<glyph unicode="&#xb3;" horiz-adv-x="558" d="M14 546q2 34 24 61t48 27t58 -34t64 -34q80 0 142 63t62 153q0 50 -28 78t-72 28q-8 0 -98 -12q-10 16 -10 28q0 26 22 32q114 24 160 83t46 105q0 30 -24 49t-56 19q-48 0 -99 -37t-55 -37q-8 0 -10 17t0 33v18q102 108 246 108q44 0 86 -35t42 -93q0 -48 -29 -90 t-53 -59t-68 -43q-6 -4 -10 -6q44 0 95 -46t51 -118q0 -114 -114 -212t-276 -98q-54 0 -96 17t-48 35z" />
<glyph unicode="&#xb4;" horiz-adv-x="414" d="M44 1086q0 14 85 119t115 135q34 34 96 34q66 0 66 -42q0 -48 -159 -163t-183 -115q-6 0 -13 12t-7 20z" />
<glyph unicode="&#xb5;" horiz-adv-x="856" d="M8 -266q0 150 166 674q6 28 19 106t13 82q20 90 48 238q30 40 54 40q18 0 54 -28t32 -46q-12 -70 -108 -308l-18 -46q-28 -118 -23 -218t51 -100q150 0 324 316l108 406q4 24 30 24q18 0 54 -28t32 -46q-10 -62 -110 -308l-18 -46q-68 -312 42 -312q58 0 118 60 q6 0 14 -20q4 -12 0 -22q-32 -66 -91 -113t-115 -47q-60 2 -72 71t-2 193q-168 -274 -334 -274q-12 0 -23 3t-19 11l-14 14t-11 20t-8 22t-6 26t-4 25t-3 26t-2 23q0 -2 -16 -84t-26 -154t-5 -163t35 -139q-2 -20 -31 -37t-57 -17q-16 0 -32 16t-31 58t-15 102z" />
<glyph unicode="&#xb6;" horiz-adv-x="828" d="M42 876q0 160 126 294t268 134q56 0 104 -4t104 -4l210 10q2 -2 2 -14q0 -44 -14 -44q-22 0 -66 -12t-54 -28q-8 -14 -33 -142t-47 -247t-22 -121q0 -6 4 -6h4l82 16q2 -6 2 -16q0 -46 -46 -60l-50 -14q-14 -6 -14 -10q-2 -8 -18 -93t-30 -162t-27 -157t-13 -102 q0 -20 47 -34t67 -14q4 0 4 -10q0 -34 -14 -44q-32 2 -132 7t-168 5q-38 0 -75 -2t-80 -5t-69 -5v4q0 14 5 32t11 18q16 0 66 15t56 29q14 30 39 149t44 223t19 110q0 10 -36 10q-126 0 -191 89t-65 205zM332 94q0 -22 40 -22q14 0 27 9t15 19q26 100 100 490q0 8 -4 8 q-2 0 -10 -2t-26 -5t-40 -5q-12 -2 -14 -14l-88 -474v-4zM438 674q0 -10 14 -10l72 12q8 0 12 12q2 8 26 138t46 249t22 127q0 6 -12 13t-26 7q-42 0 -46 -24q0 -4 -18 -87t-38 -176t-36 -174t-16 -87z" />
<glyph unicode="&#xb7;" horiz-adv-x="262" d="M20 504q0 54 42 97t92 43q38 0 62 -26t24 -66q0 -56 -41 -99t-91 -43q-38 0 -63 27t-25 67z" />
<glyph unicode="&#xb8;" horiz-adv-x="322" d="M16 -268q0 20 11 29t19 9q10 0 29 -13t35 -13q40 0 68 23t28 59q0 26 -14 39t-34 13q-14 0 -50 -14q-4 0 -9 8t-5 14q0 4 9 15t30 37t41 54h38l-40 -46h44q30 0 48 -22t18 -54q0 -62 -57 -118t-151 -56q-36 0 -58 18v18z" />
<glyph unicode="&#xb9;" horiz-adv-x="436" d="M14 516q0 40 14 40q18 0 60 10t48 18q16 18 30 96l66 346q12 84 12 88q0 24 -20 24q-12 0 -120 -36q-16 4 -16 30q0 20 14 26q58 26 140 66t126 60t52 20q12 0 12 -46q-34 -84 -48 -162l-80 -416q-8 -48 -8 -60q0 -24 8 -34q6 -10 39 -19t47 -9q4 0 4 -14q0 -26 -8 -38 q-22 0 -81 3t-101 3t-104 -3t-84 -3q-2 2 -2 10z" />
<glyph unicode="&#xba;" horiz-adv-x="624" d="M58 734q0 142 100 258t244 116q98 0 160 -70t62 -174q0 -142 -100 -256t-242 -114q-98 0 -161 69t-63 171zM190 728q0 -186 116 -186q54 0 93 32t58 85t27 107t8 116q0 176 -110 176q-70 0 -115 -52t-61 -122t-16 -156z" />
<glyph unicode="&#xbb;" horiz-adv-x="850" d="M-4 176q0 12 12 25t68 61q36 30 60 52l196 180l-128 182q-86 106 -86 128q0 12 6 20t13 11t17 6t12 5q30 -44 130 -144t194 -166q6 -12 6 -32q0 -42 -20 -50q-122 -72 -233 -149t-161 -117l-50 -42q-36 10 -36 30zM330 176q0 12 12 25t68 61q36 30 60 52l196 180 l-128 182q-88 108 -88 126q0 10 4 17t11 12t13 7t14 6l8 2q26 -40 127 -141t195 -169q8 -10 8 -28q0 -46 -22 -54q-116 -68 -226 -145t-162 -121l-54 -42q-36 10 -36 30z" />
<glyph unicode="&#xbc;" horiz-adv-x="1126" d="M-2 516q0 40 14 40q18 0 60 10t48 18q16 18 30 96l66 346q12 84 12 88q0 24 -20 24q-12 0 -120 -36q-16 4 -16 30q0 20 14 26q58 26 140 66t126 60t52 20q12 0 12 -46q-34 -84 -48 -162l-80 -416q-8 -48 -8 -60q0 -20 10 -34q6 -10 38 -19t46 -9q4 0 4 -14q0 -26 -8 -38 q-22 0 -81 3t-101 3t-104 -3t-84 -3q-2 2 -2 10zM146 8q0 8 4 12l894 1264q62 -16 62 -38q0 -8 -2 -10l-892 -1264q-66 14 -66 36zM566 282l462 498q14 14 30 14q50 0 46 -14l-90 -456v-2q0 -6 8 -6h48q18 0 18 -14q0 -58 -22 -72h-64q-4 0 -8 -10l-44 -220q-20 -10 -54 -10 q-26 0 -44 3t-24 7t-4 8l40 216v2q0 4 -6 4h-278q-14 24 -14 52zM684 326q0 -10 6 -10h182q10 0 12 10l52 258q0 8 -4 8h-2l-244 -260q-2 -2 -2 -6z" />
<glyph unicode="&#xbd;" horiz-adv-x="1218" d="M0 514q0 36 14 36q20 0 58 10t44 20q22 36 32 96l60 322q10 50 10 80q0 32 -20 32q-4 0 -94 -30q-20 16 -22 22v10t2 6t7 6t11 6t18 9t27 12t39 18t51 25t65 35t80 47h8q12 0 12 -48q-36 -82 -50 -160l-76 -392q-8 -48 -8 -60q0 -10 4 -34q2 -10 39 -20t51 -10q4 0 4 -12 q0 -26 -8 -38q-24 0 -78 3t-96 3t-99 -3t-81 -3q-4 4 -4 12zM118 8q0 8 4 12l894 1264q64 -16 64 -38q0 -6 -4 -10l-892 -1264q-66 14 -66 36zM600 34q0 18 12 32q26 24 87 82t90 86t78 77t73 80t52 69t40 67t12 55q0 40 -23 69t-69 29q-34 0 -78 -23t-74 -57q-4 -4 -8 -4 q-6 0 -13 17t-7 29l2 16q48 52 119 90t133 38q74 0 120 -48t46 -120q0 -86 -66 -178t-144 -153t-144 -111t-66 -62q0 -2 2 -2h254q34 0 52 11t21 25t13 25t30 11q12 0 14 -4q-4 -6 -74 -180h-468q-16 8 -16 34z" />
<glyph unicode="&#xbe;" horiz-adv-x="1186" d="M2 546q2 34 23 61t47 27q28 0 60 -34t66 -34q80 0 140 63t60 155q0 104 -96 104q-8 0 -98 -12q-10 16 -10 28q0 26 22 32q112 24 158 83t46 105q0 32 -24 50t-58 18q-38 0 -92 -38t-58 -38q-16 0 -16 54q0 4 2 10l2 6q102 108 246 108q46 0 88 -35t42 -93q0 -18 -3 -35 t-11 -32t-15 -27t-21 -25t-21 -20t-24 -19t-22 -15t-23 -13l-20 -12q44 0 93 -45t49 -117q0 -120 -116 -216t-272 -96q-54 0 -96 17t-48 35zM188 8q0 8 4 12l894 1264q62 -16 62 -38q0 -8 -2 -10l-892 -1264q-66 14 -66 36zM630 276v6l462 498q14 14 38 14q36 0 36 -12v-2 l-88 -454v-2q0 -6 8 -6h50q16 0 16 -14q-2 -14 -4 -32q-4 -32 -12 -36q-4 -4 -8 -6l-64 -2q-4 0 -8 -10l-42 -218q-4 -10 -56 -10q-72 0 -72 18l42 216q0 6 -6 6h-278q-14 24 -14 46zM746 328q0 -12 8 -12h182q10 0 12 10l50 258q0 10 -4 10q-10 -10 -129 -137t-119 -129z " />
<glyph unicode="&#xbf;" horiz-adv-x="554" d="M-30 -158q0 48 9 83t20 59t43 52t57 44t85 55t104 69q66 44 66 120q0 36 -39 82t-39 50q0 16 20 28q48 0 122 -61t74 -135q0 -100 -84 -166l-238 -168q-104 -72 -104 -138q0 -52 32 -88t92 -36q42 0 75 47t61 47q30 0 52 -26t28 -68q-12 -36 -48 -72t-98 -36 q-120 0 -205 80t-85 178zM326 734q0 54 43 97t93 43q38 0 61 -26t23 -66q0 -56 -40 -98t-90 -42q-38 0 -64 26t-26 66z" />
<glyph unicode="&#xc0;" horiz-adv-x="1212" d="M4 10q0 38 14 38q22 0 61 12t55 30q44 48 122 188l552 992q30 54 78 54q8 0 16 -4l166 -1056q20 -126 24 -144q6 -30 51 -51t65 -21q4 0 4 -10q0 -24 -10 -44q-186 10 -208 10q-38 0 -71 -2t-73 -4t-70 -4q-2 2 -2 12q0 42 14 42q20 0 56 12t46 28q14 30 14 94 q0 34 -36 296v5t-3 4t-8 4t-14 2t-24 2t-36 2t-50 1h-67q-42 0 -186 -10q-6 0 -54 -80t-94 -174t-46 -124q0 -22 28 -38t51 -20t31 -4q4 0 4 -12q0 -22 -10 -42q-186 10 -190 10q-38 0 -67 -2t-63 -4t-66 -4q-4 4 -4 16zM542 602q0 -4 2 -4q46 -2 152 -2q92 0 150 4q8 0 8 8 q0 10 -13 94t-30 196t-23 154q-246 -446 -246 -450zM580 1568q0 18 31 33t85 15q22 0 34 -4q46 -30 122 -95t76 -77q0 -20 -26 -20q-38 0 -180 57t-142 91z" />
<glyph unicode="&#xc1;" horiz-adv-x="1212" d="M4 10q0 38 14 38q22 0 61 12t55 30q44 48 122 188l552 992q30 54 78 54q8 0 16 -4l166 -1056q20 -126 24 -144q6 -30 51 -51t65 -21q4 0 4 -10q0 -24 -10 -44q-186 10 -208 10q-38 0 -71 -2t-73 -4t-70 -4q-2 2 -2 12q0 42 14 42q20 0 56 12t46 28q14 30 14 94 q0 34 -36 296v5t-3 4t-8 4t-14 2t-24 2t-36 2t-50 1h-67q-42 0 -186 -10q-6 0 -54 -80t-94 -174t-46 -124q0 -22 28 -38t51 -20t31 -4q4 0 4 -12q0 -22 -10 -42q-186 10 -190 10q-38 0 -67 -2t-63 -4t-66 -4q-4 4 -4 16zM542 602q0 -4 2 -4q46 -2 152 -2q92 0 150 4q8 0 8 8 q0 10 -13 94t-30 196t-23 154q-246 -446 -246 -450zM816 1442q0 12 76 77t122 95q12 4 34 4q54 0 85 -15t31 -33q0 -34 -142 -91t-180 -57q-26 0 -26 20z" />
<glyph unicode="&#xc2;" horiz-adv-x="1212" d="M4 10q0 38 14 38q22 0 61 12t55 30q44 48 122 188l552 992q30 54 78 54q8 0 16 -4l166 -1056q20 -126 24 -144q6 -30 51 -51t65 -21q4 0 4 -10q0 -24 -10 -44q-186 10 -208 10q-38 0 -71 -2t-73 -4t-70 -4q-2 2 -2 12q0 42 14 42q20 0 56 12t46 28q14 30 14 94 q0 34 -36 296v5t-3 4t-8 4t-14 2t-24 2t-36 2t-50 1h-67q-42 0 -186 -10q-6 0 -54 -80t-94 -174t-46 -124q0 -22 28 -38t51 -20t31 -4q4 0 4 -12q0 -22 -10 -42q-186 10 -190 10q-38 0 -67 -2t-63 -4t-66 -4q-4 4 -4 16zM542 602q0 -4 2 -4q46 -2 152 -2q92 0 150 4q8 0 8 8 q0 10 -13 94t-30 196t-23 154q-246 -446 -246 -450zM676 1496q8 8 31 24t59 41t64 47q68 48 110 92q18 16 26 16q16 0 22 -16q36 -64 64 -96q22 -24 50 -51t44 -41t16 -16q-10 -40 -30 -40q-38 0 -198 116q-60 -36 -144 -76t-102 -40q-22 0 -12 40z" />
<glyph unicode="&#xc3;" horiz-adv-x="1212" d="M4 10q0 38 14 38q22 0 61 12t55 30q44 48 122 188l552 992q30 54 78 54q8 0 16 -4l166 -1056q20 -126 24 -144q6 -30 51 -51t65 -21q4 0 4 -10q0 -24 -10 -44q-186 10 -208 10q-38 0 -71 -2t-73 -4t-70 -4q-2 2 -2 12q0 42 14 42q20 0 56 12t46 28q14 30 14 94 q0 34 -36 296v5t-3 4t-8 4t-14 2t-24 2t-36 2t-50 1h-67q-42 0 -186 -10q-6 0 -54 -80t-94 -174t-46 -124q0 -22 28 -38t51 -20t31 -4q4 0 4 -12q0 -22 -10 -42q-186 10 -190 10q-38 0 -67 -2t-63 -4t-66 -4q-4 4 -4 16zM542 602q0 -4 2 -4q46 -2 152 -2q92 0 150 4q8 0 8 8 q0 10 -13 94t-30 196t-23 154q-246 -446 -246 -450zM584 1508q6 32 46 76q78 80 160 80q62 0 150 -53t150 -53q22 0 55 22t57 44t26 22q14 0 6 -34q-6 -32 -46 -78q-72 -78 -156 -78q-64 0 -151 53t-151 53q-30 0 -84 -44t-56 -44q-14 0 -6 34z" />
<glyph unicode="&#xc4;" horiz-adv-x="1212" d="M4 10q0 38 14 38q22 0 61 12t55 30q44 48 122 188l552 992q30 54 78 54q8 0 16 -4l166 -1056q20 -126 24 -144q6 -30 51 -51t65 -21q4 0 4 -10q0 -24 -10 -44q-186 10 -208 10q-38 0 -71 -2t-73 -4t-70 -4q-2 2 -2 12q0 42 14 42q20 0 56 12t46 28q14 30 14 94 q0 34 -36 296v5t-3 4t-8 4t-14 2t-24 2t-36 2t-50 1h-67q-42 0 -186 -10q-6 0 -54 -80t-94 -174t-46 -124q0 -22 28 -38t51 -20t31 -4q4 0 4 -12q0 -22 -10 -42q-186 10 -190 10q-38 0 -67 -2t-63 -4t-66 -4q-4 4 -4 16zM542 602q0 -4 2 -4q46 -2 152 -2q92 0 150 4q8 0 8 8 q0 10 -13 94t-30 196t-23 154q-246 -446 -246 -450zM634 1556q8 42 40 71t72 29q38 0 60 -29t14 -71t-41 -71t-73 -29q-38 0 -59 29t-13 71zM970 1556q8 42 40 71t72 29q38 0 60 -29t14 -71t-40 -71t-72 -29q-38 0 -60 29t-14 71z" />
<glyph unicode="&#xc5;" horiz-adv-x="1212" d="M4 10q0 38 14 38q22 0 61 12t55 30q44 48 122 188l552 992q30 54 78 54q8 0 16 -4l166 -1056q20 -126 24 -144q6 -30 51 -51t65 -21q4 0 4 -10q0 -24 -10 -44q-186 10 -208 10q-38 0 -71 -2t-73 -4t-70 -4q-2 2 -2 12q0 42 14 42q20 0 56 12t46 28q14 30 14 94 q0 34 -36 296v5t-3 4t-8 4t-14 2t-24 2t-36 2t-50 1h-67q-42 0 -186 -10q-6 0 -54 -80t-94 -174t-46 -124q0 -22 28 -38t51 -20t31 -4q4 0 4 -12q0 -22 -10 -42q-186 10 -190 10q-38 0 -67 -2t-63 -4t-66 -4q-4 4 -4 16zM542 602q0 -4 2 -4q46 -2 152 -2q92 0 150 4q8 0 8 8 q0 10 -13 94t-30 196t-23 154q-246 -446 -246 -450zM728 1498q14 74 74 126t128 52t105 -52t21 -126t-73 -127t-123 -53q-68 0 -107 53t-25 127zM790 1498q-8 -46 16 -79t66 -33t77 33t45 79t-13 78t-65 32t-80 -32t-46 -78z" />
<glyph unicode="&#xc6;" horiz-adv-x="1694" d="M126 6q0 12 6 27t12 15q20 0 61 12t59 30q78 70 158 188l624 894q10 14 10 30q0 48 -60 48q-6 0 -6 10q0 32 20 52h174q84 0 290 8t310 8q-2 -40 -9 -130t-9 -138q-10 -10 -34 -10t-24 14q-2 56 -18 92t-43 51t-50 20t-53 5h-118q-156 0 -164 -26q-14 -50 -30 -196 l-30 -316v-2q0 -12 62 -12h66q120 0 149 17t69 107q6 12 8 18q6 14 30 14t30 -10q-32 -124 -52 -384q-12 -8 -30 -8q-24 0 -26 14q-2 52 -9 81t-10 33t-15 14q-20 16 -200 16q-80 0 -82 -20l-24 -264l-8 -86q-10 -86 -10 -96q0 -12 7 -20t35 -13t80 -5h30q156 0 224 34 q58 30 140 202q6 12 30 12q34 0 42 -12q-102 -196 -148 -332q-106 0 -286 6t-260 6l-252 -10q-2 2 -2 12q0 16 6 36t12 20q22 0 80 13t66 25t16 34t14 55t10 63t9 76t8 78t7 85t6 79q0 16 -12 16l-136 2q-82 0 -134 -2q-6 0 -12 -6l-218 -318q-90 -128 -90 -162 q0 -20 40 -36t62 -16q2 0 2 -4q0 -20 -18 -50q-184 10 -188 10q-38 0 -66 -2t-61 -4t-65 -4q-2 2 -2 12zM799 683q1 -3 3 -3q38 -2 106 -2q78 0 118 4l12 10l42 402l-280 -406q-2 -2 -1 -5z" />
<glyph unicode="&#xc7;" horiz-adv-x="1160" d="M120 534q0 132 59 274t157 259t241 192t297 75q136 0 426 -90q-36 -228 -40 -248q-6 -30 -48 -30q-16 0 -22 6q0 30 -2 54t-20 70t-49 76t-97 54t-158 24q-206 0 -384 -220t-178 -512q0 -192 104 -318t294 -126q148 0 252 66q50 30 87 72t54 68t19 26q6 0 24 -21t16 -29 q-90 -172 -100 -182q-30 -34 -156 -60t-254 -26q-238 0 -380 163t-142 383zM370 -294q4 12 15 22t21 10q12 0 34 -15t42 -15q44 0 74 23t36 55q6 38 -11 59t-41 21t-62 -16q-4 0 -12 12t-4 18q4 4 42 52t52 68h46l-50 -54h56q42 0 63 -34t11 -82q-16 -80 -85 -129t-157 -49 q-46 0 -70 20v34z" />
<glyph unicode="&#xc8;" horiz-adv-x="1038" d="M48 10q0 38 10 38q22 0 74 16t60 34q28 58 52 186l144 744q26 142 22 186q-2 16 -46 32t-66 16q-4 0 -4 8q0 32 14 46q92 -4 214 -4q82 0 282 8t304 8q-2 -28 -2 -78q0 -34 2 -98t2 -96q-10 -10 -36 -10q-24 0 -24 14q-6 112 -52 142t-146 30h-108q-142 0 -152 -26 q-22 -60 -36 -134l-64 -350q0 -6 5 -9t17 -4l24 -2t28 -1h90q132 0 164 19t78 123q6 14 28 14q24 0 30 -10l-74 -384q-12 -8 -28 -8q-26 0 -28 16q-2 54 -8 81t-9 32t-13 13q-20 16 -194 16q-132 0 -136 -18l-58 -296q-22 -106 -22 -174q0 -30 16 -36t106 -6h90 q174 0 242 34q32 16 75 71t81 131q6 12 30 12q34 0 42 -12q-140 -260 -164 -332q-106 0 -329 6t-303 6l-222 -10q-2 2 -2 16zM536 1568q0 18 31 33t85 15q22 0 34 -4q46 -30 122 -95t76 -77q0 -20 -26 -20q-38 0 -180 57t-142 91z" />
<glyph unicode="&#xc9;" horiz-adv-x="1038" d="M48 10q0 38 10 38q22 0 74 16t60 34q28 58 52 186l144 744q26 142 22 186q-2 16 -46 32t-66 16q-4 0 -4 8q0 32 14 46q92 -4 214 -4q82 0 282 8t304 8q-2 -28 -2 -78q0 -34 2 -98t2 -96q-10 -10 -36 -10q-24 0 -24 14q-6 112 -52 142t-146 30h-108q-142 0 -152 -26 q-22 -60 -36 -134l-64 -350q0 -6 5 -9t17 -4l24 -2t28 -1h90q132 0 164 19t78 123q6 14 28 14q24 0 30 -10l-74 -384q-12 -8 -28 -8q-26 0 -28 16q-2 54 -8 81t-9 32t-13 13q-20 16 -194 16q-132 0 -136 -18l-58 -296q-22 -106 -22 -174q0 -30 16 -36t106 -6h90 q174 0 242 34q32 16 75 71t81 131q6 12 30 12q34 0 42 -12q-140 -260 -164 -332q-106 0 -329 6t-303 6l-222 -10q-2 2 -2 16zM640 1442q0 12 76 77t122 95q12 4 34 4q54 0 85 -15t31 -33q0 -34 -142 -91t-180 -57q-26 0 -26 20z" />
<glyph unicode="&#xca;" horiz-adv-x="1038" d="M48 10q0 38 10 38q22 0 74 16t60 34q28 58 52 186l144 744q26 142 22 186q-2 16 -46 32t-66 16q-4 0 -4 8q0 32 14 46q92 -4 214 -4q82 0 282 8t304 8q-2 -28 -2 -78q0 -34 2 -98t2 -96q-10 -10 -36 -10q-24 0 -24 14q-6 112 -52 142t-146 30h-108q-142 0 -152 -26 q-22 -60 -36 -134l-64 -350q0 -6 5 -9t17 -4l24 -2t28 -1h90q132 0 164 19t78 123q6 14 28 14q24 0 30 -10l-74 -384q-12 -8 -28 -8q-26 0 -28 16q-2 54 -8 81t-9 32t-13 13q-20 16 -194 16q-132 0 -136 -18l-58 -296q-22 -106 -22 -174q0 -30 16 -36t106 -6h90 q174 0 242 34q32 16 75 71t81 131q6 12 30 12q34 0 42 -12q-140 -260 -164 -332q-106 0 -329 6t-303 6l-222 -10q-2 2 -2 16zM538 1496q8 8 31 24t59 41t64 47q68 48 110 92q18 16 26 16q16 0 22 -16q36 -64 64 -96q22 -24 50 -51t44 -41t16 -16q-10 -40 -30 -40 q-38 0 -198 116q-60 -36 -144 -76t-102 -40q-22 0 -12 40z" />
<glyph unicode="&#xcb;" horiz-adv-x="1038" d="M48 10q0 38 10 38q22 0 74 16t60 34q28 58 52 186l144 744q26 142 22 186q-2 16 -46 32t-66 16q-4 0 -4 8q0 32 14 46q92 -4 214 -4q82 0 282 8t304 8q-2 -28 -2 -78q0 -34 2 -98t2 -96q-10 -10 -36 -10q-24 0 -24 14q-6 112 -52 142t-146 30h-108q-142 0 -152 -26 q-22 -60 -36 -134l-64 -350q0 -6 5 -9t17 -4l24 -2t28 -1h90q132 0 164 19t78 123q6 14 28 14q24 0 30 -10l-74 -384q-12 -8 -28 -8q-26 0 -28 16q-2 54 -8 81t-9 32t-13 13q-20 16 -194 16q-132 0 -136 -18l-58 -296q-22 -106 -22 -174q0 -30 16 -36t106 -6h90 q174 0 242 34q32 16 75 71t81 131q6 12 30 12q34 0 42 -12q-140 -260 -164 -332q-106 0 -329 6t-303 6l-222 -10q-2 2 -2 16zM496 1556q8 42 40 71t72 29q38 0 60 -29t14 -71t-41 -71t-73 -29q-38 0 -59 29t-13 71zM832 1556q8 42 40 71t72 29q38 0 60 -29t14 -71t-40 -71 t-72 -29q-38 0 -60 29t-14 71z" />
<glyph unicode="&#xcc;" horiz-adv-x="526" d="M48 10q0 38 14 38q24 0 72 13t56 31q30 68 52 192l142 740q22 110 22 184q0 22 -43 38t-69 16q-4 0 -4 10q0 28 16 44q24 -2 95 -7t121 -5q48 0 123 6t89 6v-6q0 -48 -14 -48q-16 0 -67 -16t-57 -30q-26 -56 -52 -186l-142 -752q-22 -110 -22 -180q0 -16 27 -29t53 -17 l28 -4q4 0 4 -8q0 -22 -12 -46q-184 10 -208 10q-4 0 -220 -10q-4 4 -4 16zM216 1568q0 18 31 33t85 15q22 0 34 -4q46 -30 122 -95t76 -77q0 -20 -26 -20q-38 0 -180 57t-142 91z" />
<glyph unicode="&#xcd;" horiz-adv-x="526" d="M48 10q0 38 14 38q24 0 72 13t56 31q30 68 52 192l142 740q22 110 22 184q0 22 -43 38t-69 16q-4 0 -4 10q0 28 16 44q24 -2 95 -7t121 -5q48 0 123 6t89 6v-6q0 -48 -14 -48q-16 0 -67 -16t-57 -30q-26 -56 -52 -186l-142 -752q-22 -110 -22 -180q0 -16 27 -29t53 -17 l28 -4q4 0 4 -8q0 -22 -12 -46q-184 10 -208 10q-4 0 -220 -10q-4 4 -4 16zM428 1442q0 12 76 77t122 95q12 4 34 4q54 0 85 -15t31 -33q0 -34 -142 -91t-180 -57q-26 0 -26 20z" />
<glyph unicode="&#xce;" horiz-adv-x="526" d="M48 10q0 38 14 38q24 0 72 13t56 31q30 68 52 192l142 740q22 110 22 184q0 22 -43 38t-69 16q-4 0 -4 10q0 28 16 44q24 -2 95 -7t121 -5q48 0 123 6t89 6v-6q0 -48 -14 -48q-16 0 -67 -16t-57 -30q-26 -56 -52 -186l-142 -752q-22 -110 -22 -180q0 -16 27 -29t53 -17 l28 -4q4 0 4 -8q0 -22 -12 -46q-184 10 -208 10q-4 0 -220 -10q-4 4 -4 16zM312 1496q8 8 31 24t59 41t64 47q68 48 110 92q18 16 26 16q16 0 22 -16q36 -64 64 -96q22 -24 50 -51t44 -41t16 -16q-10 -40 -30 -40q-38 0 -198 116q-60 -36 -144 -76t-102 -40q-22 0 -12 40z " />
<glyph unicode="&#xcf;" horiz-adv-x="526" d="M48 10q0 38 14 38q24 0 72 13t56 31q30 68 52 192l142 740q22 110 22 184q0 22 -43 38t-69 16q-4 0 -4 10q0 28 16 44q24 -2 95 -7t121 -5q48 0 123 6t89 6v-6q0 -48 -14 -48q-16 0 -67 -16t-57 -30q-26 -56 -52 -186l-142 -752q-22 -110 -22 -180q0 -16 27 -29t53 -17 l28 -4q4 0 4 -8q0 -22 -12 -46q-184 10 -208 10q-4 0 -220 -10q-4 4 -4 16zM304 1562q0 46 29 79t73 33q30 0 52 -24t22 -56q0 -48 -31 -84t-77 -36q-32 0 -50 26t-18 62zM642 1562q0 46 29 79t73 33q30 0 52 -24t22 -56q0 -48 -31 -84t-77 -36q-32 0 -50 26t-18 62z" />
<glyph unicode="&#xd0;" horiz-adv-x="1318" d="M40 20q0 38 10 38q22 0 74 17t60 33q28 58 52 186l144 744q26 144 22 186q-2 16 -46 32t-66 16q-4 0 -4 8q0 32 14 46q92 -4 214 -4q70 0 180 2t146 2q134 0 237 -41t166 -112t94 -160t31 -193q0 -102 -30 -212t-95 -218t-155 -194t-222 -139t-286 -53q-36 0 -142 5 t-174 5q-54 0 -110 -2t-84 -6l-28 -2q-2 2 -2 16zM190 652q0 36 12 54h690q12 0 12 -20q0 -32 -12 -60h-692q-10 0 -10 26zM390 203q0 -57 4 -67q8 -16 63 -26t97 -12t72 -2q168 0 300 109t199 277t67 356q0 176 -88 288t-268 112q-20 0 -60 -1t-105 -9t-75 -22 q-16 -20 -28 -50t-14 -43t-12 -65l-146 -760q-6 -28 -6 -85z" />
<glyph unicode="&#xd1;" horiz-adv-x="1326" d="M48 10q0 38 14 38q24 0 85 16t69 32q22 44 54 192l154 744q18 88 18 180q0 24 -52 37t-84 13q-4 0 -4 14q0 30 14 40q156 -8 198 -8q36 0 188 8q30 -118 146 -393t238 -517q14 40 22 82l102 538q26 130 26 184q0 24 -55 38t-85 14q-4 0 -4 14q0 30 14 40q206 -10 210 -10 q28 0 218 10q0 -54 -12 -54q-20 0 -85 -15t-71 -29q-26 -64 -50 -186l-150 -760q-12 -62 -28 -160t-20 -120q-8 -8 -20 -8q-28 0 -52 46q-2 4 -492 1132l-178 -880q-20 -98 -20 -178q0 -16 32 -30t64 -20l34 -6q4 0 4 -10q0 -24 -10 -44q-184 10 -208 10q-4 0 -220 -10 q-4 4 -4 16zM648 1508q6 32 46 76q78 80 160 80q62 0 150 -53t150 -53q22 0 55 22t57 44t26 22q14 0 6 -34q-6 -32 -46 -78q-72 -78 -156 -78q-64 0 -151 53t-151 53q-30 0 -84 -44t-56 -44q-14 0 -6 34z" />
<glyph unicode="&#xd2;" horiz-adv-x="1248" d="M120 518q0 208 110 399t282 304t352 113q202 0 339 -151t137 -365q0 -216 -103 -410t-277 -311t-368 -117q-214 0 -343 153t-129 385zM302 534q0 -204 89 -336t253 -132q208 0 360 227t152 497q0 200 -88 330t-250 130q-216 0 -366 -223t-150 -493zM586 1568q0 18 31 33 t85 15q22 0 34 -4q46 -30 122 -95t76 -77q0 -20 -26 -20q-38 0 -180 57t-142 91z" />
<glyph unicode="&#xd3;" horiz-adv-x="1248" d="M120 518q0 208 110 399t282 304t352 113q202 0 339 -151t137 -365q0 -216 -103 -410t-277 -311t-368 -117q-214 0 -343 153t-129 385zM302 534q0 -204 89 -336t253 -132q208 0 360 227t152 497q0 200 -88 330t-250 130q-216 0 -366 -223t-150 -493zM750 1442q0 12 76 77 t122 95q12 4 34 4q54 0 85 -15t31 -33q0 -34 -142 -91t-180 -57q-26 0 -26 20z" />
<glyph unicode="&#xd4;" horiz-adv-x="1248" d="M120 518q0 208 110 399t282 304t352 113q202 0 339 -151t137 -365q0 -216 -103 -410t-277 -311t-368 -117q-214 0 -343 153t-129 385zM302 534q0 -204 89 -336t253 -132q208 0 360 227t152 497q0 200 -88 330t-250 130q-216 0 -366 -223t-150 -493zM652 1496q8 8 31 24 t59 41t64 47q68 48 110 92q18 16 26 16q16 0 22 -16q36 -64 64 -96q22 -24 50 -51t44 -41t16 -16q-10 -40 -30 -40q-38 0 -198 116q-60 -36 -144 -76t-102 -40q-22 0 -12 40z" />
<glyph unicode="&#xd5;" horiz-adv-x="1248" d="M120 518q0 208 110 399t282 304t352 113q202 0 339 -151t137 -365q0 -216 -103 -410t-277 -311t-368 -117q-214 0 -343 153t-129 385zM302 534q0 -204 89 -336t253 -132q208 0 360 227t152 497q0 200 -88 330t-250 130q-216 0 -366 -223t-150 -493zM584 1508q6 32 46 76 q78 80 160 80q62 0 150 -53t150 -53q22 0 55 22t57 44t26 22q14 0 6 -34q-6 -32 -46 -78q-72 -78 -156 -78q-64 0 -151 53t-151 53q-30 0 -84 -44t-56 -44q-14 0 -6 34z" />
<glyph unicode="&#xd6;" horiz-adv-x="1248" d="M120 518q0 208 110 399t282 304t352 113q202 0 339 -151t137 -365q0 -216 -103 -410t-277 -311t-368 -117q-214 0 -343 153t-129 385zM302 534q0 -204 89 -336t253 -132q208 0 360 227t152 497q0 200 -88 330t-250 130q-216 0 -366 -223t-150 -493zM646 1556q8 42 40 71 t72 29q38 0 60 -29t14 -71t-41 -71t-73 -29q-38 0 -59 29t-13 71zM982 1556q8 42 40 71t72 29q38 0 60 -29t14 -71t-40 -71t-72 -29q-38 0 -60 29t-14 71z" />
<glyph unicode="&#xd7;" horiz-adv-x="788" d="M14 216l308 270q4 4 4 6q0 8 -2 10l-202 274q0 18 33 56t43 38l8 -8l208 -282q4 -4 8 -4q2 0 4 2l316 282q6 6 12 6q10 0 22 -35t12 -63l-306 -272l-4 -4q0 -2 2 -4l200 -272q0 -20 -27 -58t-39 -38q-10 0 -14 6l-206 280q-4 4 -6 4q-4 0 -8 -4l-322 -280q-6 -6 -10 -6 q-8 0 -21 36t-13 60z" />
<glyph unicode="&#xd8;" horiz-adv-x="1292" d="M178 656q54 280 267 479t459 199t382 -199t82 -479t-268 -478t-460 -198t-381 198t-81 478zM230 20l1032 1314q14 -4 33 -20t13 -24l-1034 -1316q-14 6 -32 22t-12 24zM356 470q10 -114 43 -204t108 -145t179 -55q178 0 313 166t177 386q26 116 16 229t-44 203t-109 145 t-179 55q-176 0 -311 -166t-177 -384q-26 -116 -16 -230z" />
<glyph unicode="&#xd9;" horiz-adv-x="1262" d="M240 412q0 74 28 212l78 400q22 114 22 184q0 22 -43 38t-69 16q-4 0 -4 10q0 28 16 44q24 -2 95 -7t121 -5q48 0 123 6t89 6v-6q0 -48 -14 -48q-16 0 -67 -16t-57 -30q-26 -56 -52 -186l-82 -434q-16 -88 -16 -170q0 -154 66 -241t196 -87q326 0 410 450l88 476 q24 140 24 180q0 24 -58 41t-92 17q-4 0 -4 12q0 32 14 42q24 -2 96 -7t120 -5q38 0 73 2t75 5t66 5q0 -54 -14 -54q-16 0 -78 -16t-72 -30q-16 -20 -54 -196l-90 -468q-62 -318 -192 -435t-374 -117q-174 0 -271 106t-97 306zM552 1568q0 18 31 33t85 15q22 0 34 -4 q46 -30 122 -95t76 -77q0 -20 -26 -20q-38 0 -180 57t-142 91z" />
<glyph unicode="&#xda;" horiz-adv-x="1262" d="M240 412q0 74 28 212l78 400q22 114 22 184q0 22 -43 38t-69 16q-4 0 -4 10q0 28 16 44q24 -2 95 -7t121 -5q48 0 123 6t89 6v-6q0 -48 -14 -48q-16 0 -67 -16t-57 -30q-26 -56 -52 -186l-82 -434q-16 -88 -16 -170q0 -154 66 -241t196 -87q326 0 410 450l88 476 q24 140 24 180q0 24 -58 41t-92 17q-4 0 -4 12q0 32 14 42q24 -2 96 -7t120 -5q38 0 73 2t75 5t66 5q0 -54 -14 -54q-16 0 -78 -16t-72 -30q-16 -20 -54 -196l-90 -468q-62 -318 -192 -435t-374 -117q-174 0 -271 106t-97 306zM798 1442q0 12 76 77t122 95q12 4 34 4 q54 0 85 -15t31 -33q0 -34 -142 -91t-180 -57q-26 0 -26 20z" />
<glyph unicode="&#xdb;" horiz-adv-x="1262" d="M240 412q0 74 28 212l78 400q22 114 22 184q0 22 -43 38t-69 16q-4 0 -4 10q0 28 16 44q24 -2 95 -7t121 -5q48 0 123 6t89 6v-6q0 -48 -14 -48q-16 0 -67 -16t-57 -30q-26 -56 -52 -186l-82 -434q-16 -88 -16 -170q0 -154 66 -241t196 -87q326 0 410 450l88 476 q24 140 24 180q0 24 -58 41t-92 17q-4 0 -4 12q0 32 14 42q24 -2 96 -7t120 -5q38 0 73 2t75 5t66 5q0 -54 -14 -54q-16 0 -78 -16t-72 -30q-16 -20 -54 -196l-90 -468q-62 -318 -192 -435t-374 -117q-174 0 -271 106t-97 306zM680 1496q8 8 31 24t59 41t64 47q68 48 110 92 q18 16 26 16q16 0 22 -16q36 -64 64 -96q22 -24 50 -51t44 -41t16 -16q-10 -40 -30 -40q-38 0 -198 116q-60 -36 -144 -76t-102 -40q-22 0 -12 40z" />
<glyph unicode="&#xdc;" horiz-adv-x="1262" d="M240 412q0 74 28 212l78 400q22 114 22 184q0 22 -43 38t-69 16q-4 0 -4 10q0 28 16 44q24 -2 95 -7t121 -5q48 0 123 6t89 6v-6q0 -48 -14 -48q-16 0 -67 -16t-57 -30q-26 -56 -52 -186l-82 -434q-16 -88 -16 -170q0 -154 66 -241t196 -87q326 0 410 450l88 476 q24 140 24 180q0 24 -58 41t-92 17q-4 0 -4 12q0 32 14 42q24 -2 96 -7t120 -5q38 0 73 2t75 5t66 5q0 -54 -14 -54q-16 0 -78 -16t-72 -30q-16 -20 -54 -196l-90 -468q-62 -318 -192 -435t-374 -117q-174 0 -271 106t-97 306zM644 1556q8 42 40 71t72 29q38 0 60 -29 t14 -71t-41 -71t-73 -29q-38 0 -59 29t-13 71zM980 1556q8 42 40 71t72 29q38 0 60 -29t14 -71t-40 -71t-72 -29q-38 0 -60 29t-14 71z" />
<glyph unicode="&#xdd;" horiz-adv-x="1186" d="M240 1272q0 34 14 44q24 -2 102 -7t132 -5q20 0 248 12v-10q0 -44 -14 -44q-30 0 -78 -21t-48 -63q0 -20 8 -44l138 -424q26 34 91 118t100 131t79 107t64 92t20 42q-2 26 -43 44t-81 18q-4 0 -4 12q0 32 14 42q16 0 80 -6t104 -6q10 0 238 12q2 -4 2 -10q0 -44 -14 -44 q-20 0 -79 -19t-83 -43t-241 -317t-221 -313l-56 -292q-22 -110 -22 -180q0 -16 27 -29t55 -17l26 -4q4 0 4 -8q0 -22 -12 -46q-186 10 -208 10q-6 0 -222 -10q-2 2 -2 14q0 40 14 40q22 0 70 14t58 30q24 42 50 180l52 284q2 8 -40 141t-86 263l-42 130q-30 92 -78 128 q-20 14 -58 29t-54 15q-4 0 -4 10zM828 1442q0 12 76 77t122 95q12 4 34 4q54 0 85 -15t31 -33q0 -34 -142 -91t-180 -57q-26 0 -26 20z" />
<glyph unicode="&#xde;" horiz-adv-x="1030" d="M96 24q4 28 12 28q24 0 73 12t59 28q30 68 48 178l152 776q22 132 20 178q-2 16 -47 29t-69 13q-6 0 -2 26q4 22 14 32q210 -10 222 -10q26 0 216 10q0 -20 -2 -30q-4 -28 -12 -28q-18 0 -70 -14t-58 -28q-28 -66 -50 -176q-2 -10 -5 -23t-3 -17q-2 -14 4 -14q4 0 26 7 t64 14t90 7q62 0 121 -20t110 -60t74 -114t3 -172q-26 -134 -154 -267t-304 -133q-106 0 -132 56q-8 14 4 46q2 8 6 6q52 -22 120 -22q92 0 176 84t106 200q58 308 -176 308q-92 0 -132 -14q-26 -8 -38 -74l-110 -568q-22 -116 -20 -186q2 -14 48 -27t64 -13q8 0 2 -30 q-4 -18 -10 -28q-184 10 -214 10q-10 0 -224 -10q-6 10 -2 30z" />
<glyph unicode="&#xdf;" horiz-adv-x="990" d="M-180 -382q14 116 78 116q18 0 31 -19t20 -43t26 -43t49 -19q28 0 54 36t43 94t32 123t27 131q2 16 4 24l130 690v4q0 10 -6 10h-130q-4 0 -4 6q0 18 32 52t64 34h58q8 0 20 59t35 143t60 169t112 144t175 59q122 0 216 -58t94 -168q0 -62 -25 -116t-73 -98t-74 -63 t-70 -47q-14 -8 -47 -27t-48 -29t-30 -31t-15 -47q0 -12 3 -23t11 -22t14 -19t20 -21t21 -19t24 -20t23 -20q12 -10 50 -42t48 -42t34 -36t31 -43t15 -45t8 -58q0 -120 -81 -207t-199 -87q-84 0 -150 28t-74 56q18 116 88 116q20 0 35 -21t24 -47t31 -47t52 -21q54 0 89 39 t45 77t10 70q0 26 -8 51t-29 49t-33 37t-43 39t-37 32q-10 8 -39 32t-39 35t-28 32t-24 43t-6 48q0 62 33 100t147 122q164 124 164 308q0 66 -47 100t-129 34q-64 0 -119 -91t-77 -181l-22 -92l-164 -856q-56 -298 -138 -429t-206 -131q-72 0 -113 27t-53 59z" />
<glyph unicode="&#xe0;" horiz-adv-x="880" d="M132 260q0 142 85 285t219 234t268 91q76 0 146 -26l-122 -632q-6 -24 -6 -50q0 -50 20 -50q12 0 29 11t34 27t31 31t26 27l12 14q4 0 15 -19t11 -27q-26 -44 -108 -116t-144 -72q-32 0 -50 29t-18 75q0 34 14 106q4 22 7 35t3 17q-20 -36 -46 -73t-66 -83t-85 -75 t-85 -29q-88 0 -139 79t-51 191zM280 302q0 -196 102 -196q72 0 161 146t119 296l40 204q-24 26 -82 26q-118 0 -229 -153t-111 -323zM376 1224q0 30 33 43t65 13q30 0 40 -10q4 -4 31 -32t56 -59t59 -65t50 -58t20 -28q0 -12 -9 -24t-17 -12q-32 0 -180 95t-148 137z" />
<glyph unicode="&#xe1;" horiz-adv-x="880" d="M132 260q0 142 85 285t219 234t268 91q76 0 146 -26l-122 -632q-6 -24 -6 -50q0 -50 20 -50q12 0 29 11t34 27t31 31t26 27l12 14q4 0 15 -19t11 -27q-26 -44 -108 -116t-144 -72q-32 0 -50 29t-18 75q0 34 14 106q4 22 7 35t3 17q-20 -36 -46 -73t-66 -83t-85 -75 t-85 -29q-88 0 -139 79t-51 191zM280 302q0 -196 102 -196q72 0 161 146t119 296l40 204q-24 26 -82 26q-118 0 -229 -153t-111 -323zM522 1016q0 14 85 110t145 142q16 10 52 10q78 0 78 -48q0 -44 -161 -141t-185 -97q-4 0 -9 8t-5 16z" />
<glyph unicode="&#xe2;" horiz-adv-x="880" d="M132 260q0 142 85 285t219 234t268 91q76 0 146 -26l-122 -632q-6 -24 -6 -50q0 -50 20 -50q12 0 29 11t34 27t31 31t26 27l12 14q4 0 15 -19t11 -27q-26 -44 -108 -116t-144 -72q-32 0 -50 29t-18 75q0 34 14 106q4 22 7 35t3 17q-20 -36 -46 -73t-66 -83t-85 -75 t-85 -29q-88 0 -139 79t-51 191zM280 302q0 -196 102 -196q72 0 161 146t119 296l40 204q-24 26 -82 26q-118 0 -229 -153t-111 -323zM428 1007q-2 15 0 25l124 102q74 60 108 102q18 18 22 18q6 0 18 -18q48 -78 56 -88q18 -24 43 -53t39 -45t14 -18q-10 -40 -26 -40 q-34 0 -172 116q-52 -36 -125 -76t-89 -40q-10 0 -12 15z" />
<glyph unicode="&#xe3;" horiz-adv-x="880" d="M132 260q0 142 85 285t219 234t268 91q76 0 146 -26l-122 -632q-6 -24 -6 -50q0 -50 20 -50q12 0 29 11t34 27t31 31t26 27l12 14q4 0 15 -19t11 -27q-26 -44 -108 -116t-144 -72q-32 0 -50 29t-18 75q0 34 14 106q4 22 7 35t3 17q-20 -36 -46 -73t-66 -83t-85 -75 t-85 -29q-88 0 -139 79t-51 191zM280 302q0 -196 102 -196q72 0 161 146t119 296l40 204q-24 26 -82 26q-118 0 -229 -153t-111 -323zM342 1022q0 50 57 114t129 64q56 0 132 -53t132 -53q20 0 48 22t49 44t23 22q8 0 8 -18q0 -46 -53 -109t-127 -63q-56 0 -133 53t-133 53 q-28 0 -74 -44t-48 -44q-10 0 -10 12z" />
<glyph unicode="&#xe4;" horiz-adv-x="880" d="M132 260q0 142 85 285t219 234t268 91q76 0 146 -26l-122 -632q-6 -24 -6 -50q0 -50 20 -50q12 0 29 11t34 27t31 31t26 27l12 14q4 0 15 -19t11 -27q-26 -44 -108 -116t-144 -72q-32 0 -50 29t-18 75q0 34 14 106q4 22 7 35t3 17q-20 -36 -46 -73t-66 -83t-85 -75 t-85 -29q-88 0 -139 79t-51 191zM280 302q0 -196 102 -196q72 0 161 146t119 296l40 204q-24 26 -82 26q-118 0 -229 -153t-111 -323zM362 1102q0 46 29 79t73 33q30 0 52 -24t22 -56q0 -48 -31 -84t-77 -36q-32 0 -50 26t-18 62zM700 1102q0 46 29 79t73 33q30 0 52 -24 t22 -56q0 -48 -31 -84t-77 -36q-32 0 -50 26t-18 62z" />
<glyph unicode="&#xe5;" horiz-adv-x="880" d="M132 260q0 142 85 285t219 234t268 91q76 0 146 -26l-122 -632q-6 -24 -6 -50q0 -50 20 -50q12 0 29 11t34 27t31 31t26 27l12 14q4 0 15 -19t11 -27q-26 -44 -108 -116t-144 -72q-32 0 -50 29t-18 75q0 34 14 106q4 22 7 35t3 17q-20 -36 -46 -73t-66 -83t-85 -75 t-85 -29q-88 0 -139 79t-51 191zM280 302q0 -196 102 -196q72 0 161 146t119 296l40 204q-24 26 -82 26q-118 0 -229 -153t-111 -323zM486 1172q14 74 73 126t127 52t105 -52t21 -126t-73 -127t-123 -53q-68 0 -106 53t-24 127zM548 1172q-8 -46 15 -79t65 -33t79 33t45 79 t-15 78t-65 32t-79 -32t-45 -78z" />
<glyph unicode="&#xe6;" horiz-adv-x="1120" d="M80 130q0 82 47 149t121 107t138 62t128 34q16 4 22 32l34 166q2 6 2 32q0 36 -28 60t-66 24q-52 0 -96 -46t-58 -118q-12 -68 -98 -68q-52 0 -52 26q0 76 127 179t251 103q144 0 156 -110q114 108 260 108q140 0 140 -158q0 -114 -161 -210t-273 -96q-22 0 -22 -38 q0 -130 44 -193t110 -63q40 0 84 34t72 68t30 34t6 -7t9 -18t5 -19q-16 -48 -100 -130t-164 -82q-62 0 -123 46t-87 112q-34 -66 -99 -115t-163 -49q-72 0 -134 38t-62 106zM238 180q0 -42 24 -71t62 -29q70 0 114 67t58 143l16 92q-90 -16 -150 -45t-84 -61t-32 -53t-8 -43 zM668 510q0 -12 14 -12q46 0 110 21t121 71t57 114q0 84 -50 84q-84 0 -168 -100t-84 -178z" />
<glyph unicode="&#xe7;" horiz-adv-x="652" d="M136 292q0 192 146 385t298 193q94 0 174 -68q6 -24 6 -40q0 -38 -19 -62t-51 -24t-66 56t-68 56q-86 0 -179 -139t-93 -325q0 -212 132 -212q16 0 31 4t29 10t28 13t26 17t23 18t20 17t14 15t9 10l6 6q4 0 15 -19t11 -27q-28 -48 -112 -118t-166 -70q-104 0 -159 81 t-55 223zM194 -258q0 20 11 29t19 9q10 0 29 -13t35 -13q40 0 68 23t28 59q0 26 -14 39t-34 13q-14 0 -50 -14q-4 0 -9 8t-5 14q0 4 9 15t30 37t41 54h38l-40 -46h44q30 0 48 -22t18 -54q0 -62 -57 -118t-151 -56q-36 0 -58 18v18z" />
<glyph unicode="&#xe8;" horiz-adv-x="718" d="M140 292q0 192 146 385t298 193q92 0 133 -47t41 -103q0 -88 -90 -174t-197 -133t-173 -47q-8 0 -8 -70q0 -90 35 -137t95 -47q16 0 31 4t29 10t28 13t26 17t23 18t20 17t14 15t9 10l6 6q4 0 15 -19t11 -27q-28 -48 -112 -118t-166 -70q-104 0 -159 81t-55 223zM290 1224 q0 30 33 43t65 13q30 0 40 -10q4 -4 31 -32t56 -59t59 -65t50 -58t20 -28q0 -12 -9 -24t-17 -12q-32 0 -180 95t-148 137zM304 444q0 -8 8 -8q72 0 187 96t115 196q0 60 -50 60q-94 0 -177 -135t-83 -209z" />
<glyph unicode="&#xe9;" horiz-adv-x="718" d="M140 292q0 192 146 385t298 193q92 0 133 -47t41 -103q0 -88 -90 -174t-197 -133t-173 -47q-8 0 -8 -70q0 -90 35 -137t95 -47q16 0 31 4t29 10t28 13t26 17t23 18t20 17t14 15t9 10l6 6q4 0 15 -19t11 -27q-28 -48 -112 -118t-166 -70q-104 0 -159 81t-55 223zM304 444 q0 -8 8 -8q72 0 187 96t115 196q0 60 -50 60q-94 0 -177 -135t-83 -209zM604 1016q0 14 85 110t145 142q16 10 52 10q78 0 78 -48q0 -44 -161 -141t-185 -97q-4 0 -9 8t-5 16z" />
<glyph unicode="&#xea;" horiz-adv-x="718" d="M140 292q0 192 146 385t298 193q92 0 133 -47t41 -103q0 -88 -90 -174t-197 -133t-173 -47q-8 0 -8 -70q0 -90 35 -137t95 -47q16 0 31 4t29 10t28 13t26 17t23 18t20 17t14 15t9 10l6 6q4 0 15 -19t11 -27q-28 -48 -112 -118t-166 -70q-104 0 -159 81t-55 223zM304 444 q0 -8 8 -8q72 0 187 96t115 196q0 60 -50 60q-94 0 -177 -135t-83 -209zM414 1007q-2 15 0 25l124 102q74 60 108 102q18 18 22 18q6 0 18 -18q48 -78 56 -88q18 -24 43 -53t39 -45t14 -18q-10 -40 -26 -40q-34 0 -172 116q-52 -36 -125 -76t-89 -40q-10 0 -12 15z" />
<glyph unicode="&#xeb;" horiz-adv-x="718" d="M140 292q0 192 146 385t298 193q92 0 133 -47t41 -103q0 -88 -90 -174t-197 -133t-173 -47q-8 0 -8 -70q0 -90 35 -137t95 -47q16 0 31 4t29 10t28 13t26 17t23 18t20 17t14 15t9 10l6 6q4 0 15 -19t11 -27q-28 -48 -112 -118t-166 -70q-104 0 -159 81t-55 223zM284 1102 q0 46 29 79t73 33q30 0 52 -24t22 -56q0 -48 -31 -84t-77 -36q-32 0 -50 26t-18 62zM304 444q0 -8 8 -8q72 0 187 96t115 196q0 60 -50 60q-94 0 -177 -135t-83 -209zM622 1102q0 46 29 79t73 33q30 0 52 -24t22 -56q0 -48 -31 -84t-77 -36q-32 0 -50 26t-18 62z" />
<glyph unicode="&#xec;" horiz-adv-x="432" d="M-4 652q18 52 86 135t134 83q114 0 114 -144q0 -50 -46 -287t-46 -261q0 -74 44 -74q18 0 49 36t55 73t26 37t6 -7t9 -18t5 -19q-18 -52 -86 -135t-134 -83q-112 0 -112 146q0 58 14 122l72 360q6 42 6 56q0 82 -56 82q-20 0 -68 -74l-50 -72q-2 0 -6 7t-10 18t-6 19z M16 1224q0 30 33 43t65 13q30 0 40 -10q4 -4 31 -32t56 -59t59 -65t50 -58t20 -28q0 -12 -9 -24t-17 -12q-32 0 -180 95t-148 137z" />
<glyph unicode="&#xed;" horiz-adv-x="432" d="M-4 652q18 52 86 135t134 83q114 0 114 -144q0 -50 -46 -287t-46 -261q0 -74 44 -74q18 0 49 36t55 73t26 37t6 -7t9 -18t5 -19q-18 -52 -86 -135t-134 -83q-112 0 -112 146q0 58 14 122l72 360q6 42 6 56q0 82 -56 82q-20 0 -68 -74l-50 -72q-2 0 -6 7t-10 18t-6 19z M134 1016q0 14 85 110t145 142q16 10 52 10q78 0 78 -48q0 -44 -161 -141t-185 -97q-4 0 -9 8t-5 16z" />
<glyph unicode="&#xee;" horiz-adv-x="432" d="M-4 652q18 52 86 135t134 83q114 0 114 -144q0 -50 -46 -287t-46 -261q0 -74 44 -74q18 0 49 36t55 73t26 37t6 -7t9 -18t5 -19q-18 -52 -86 -135t-134 -83q-112 0 -112 146q0 58 14 122l72 360q6 42 6 56q0 82 -56 82q-20 0 -68 -74l-50 -72q-2 0 -6 7t-10 18t-6 19z M56 1007q-2 15 0 25l124 102q74 60 108 102q18 18 22 18q6 0 18 -18q48 -78 56 -88q18 -24 43 -53t39 -45t14 -18q-10 -40 -26 -40q-34 0 -172 116q-52 -36 -125 -76t-89 -40q-10 0 -12 15z" />
<glyph unicode="&#xef;" horiz-adv-x="432" d="M-4 652q18 52 86 135t134 83q114 0 114 -144q0 -50 -46 -287t-46 -261q0 -74 44 -74q18 0 49 36t55 73t26 37t6 -7t9 -18t5 -19q-18 -52 -86 -135t-134 -83q-112 0 -112 146q0 58 14 122l72 360q6 42 6 56q0 82 -56 82q-20 0 -68 -74l-50 -72q-2 0 -6 7t-10 18t-6 19z M86 1102q0 46 29 79t73 33q30 0 52 -24t22 -56q0 -48 -31 -84t-77 -36q-32 0 -50 26t-18 62zM352 1102q0 46 29 79t73 33q30 0 52 -24t22 -56q0 -48 -31 -84t-77 -36q-32 0 -50 26t-18 62z" />
<glyph unicode="&#xf0;" horiz-adv-x="768" d="M144 434q34 172 154 307t272 135q100 0 136 -62q8 330 -342 514q2 12 14 30t22 18q230 -64 362 -297t64 -579q-44 -224 -158 -369t-248 -145q-172 0 -241 134t-35 314zM300 448q-28 -148 8 -266t114 -118q174 0 246 370q30 148 4 230q-42 132 -138 132q-84 0 -144 -98 t-90 -250zM370 1082l500 328q32 -50 20 -62l-502 -330q-30 52 -18 64z" />
<glyph unicode="&#xf1;" horiz-adv-x="984" d="M170 698q24 40 101 106t129 66q32 0 50 -29t18 -75q0 -44 -12 -106l-36 -184q20 36 87 124t164 179t157 91q100 0 100 -132q0 -90 -28 -218l-66 -308q-6 -24 -6 -50q0 -50 20 -50q12 0 29 11t34 27t31 31t26 27l12 14q4 0 15 -19t11 -27q-26 -44 -108 -116t-144 -72 q-32 0 -50 29t-18 75q0 32 14 106l70 330q14 66 14 108q0 86 -38 86q-66 0 -205 -181t-179 -385l-34 -156q-26 -8 -62 -8t-68 8l118 616q10 72 10 80q0 50 -20 50q-8 0 -22 -9t-29 -23t-27 -26t-22 -24l-10 -12q-4 0 -15 19t-11 27zM378 1022q0 50 57 114t129 64 q56 0 132 -53t132 -53q20 0 48 22t49 44t23 22q8 0 8 -18q0 -46 -53 -109t-127 -63q-56 0 -133 53t-133 53q-28 0 -74 -44t-48 -44q-10 0 -10 12z" />
<glyph unicode="&#xf2;" horiz-adv-x="824" d="M136 290q0 208 144 394t296 186q118 0 183 -82t65 -226q0 -206 -145 -389t-297 -183q-120 0 -183 78t-63 222zM264 1224q0 30 33 43t65 13q30 0 40 -10q4 -4 31 -32t56 -59t59 -65t50 -58t20 -28q0 -12 -9 -24t-17 -12q-32 0 -180 95t-148 137zM288 316q0 -116 37 -180 t93 -64q100 0 177 157t77 317q0 118 -32 180t-88 62q-100 0 -182 -157t-82 -315z" />
<glyph unicode="&#xf3;" horiz-adv-x="824" d="M136 290q0 208 144 394t296 186q118 0 183 -82t65 -226q0 -206 -145 -389t-297 -183q-120 0 -183 78t-63 222zM288 316q0 -116 37 -180t93 -64q100 0 177 157t77 317q0 118 -32 180t-88 62q-100 0 -182 -157t-82 -315zM462 1016q0 14 85 110t145 142q16 10 52 10 q78 0 78 -48q0 -44 -161 -141t-185 -97q-4 0 -9 8t-5 16z" />
<glyph unicode="&#xf4;" horiz-adv-x="824" d="M136 290q0 208 144 394t296 186q118 0 183 -82t65 -226q0 -206 -145 -389t-297 -183q-120 0 -183 78t-63 222zM288 316q0 -116 37 -180t93 -64q100 0 177 157t77 317q0 118 -32 180t-88 62q-100 0 -182 -157t-82 -315zM388 1007q-2 15 0 25l124 102q74 60 108 102 q18 18 22 18q6 0 18 -18q48 -78 56 -88q18 -24 43 -53t39 -45t14 -18q-10 -40 -26 -40q-34 0 -172 116q-52 -36 -125 -76t-89 -40q-10 0 -12 15z" />
<glyph unicode="&#xf5;" horiz-adv-x="824" d="M136 290q0 208 144 394t296 186q118 0 183 -82t65 -226q0 -206 -145 -389t-297 -183q-120 0 -183 78t-63 222zM278 1022q0 50 57 114t129 64q56 0 132 -53t132 -53q20 0 48 22t49 44t23 22q8 0 8 -18q0 -46 -53 -109t-127 -63q-56 0 -133 53t-133 53q-28 0 -74 -44 t-48 -44q-10 0 -10 12zM288 316q0 -116 37 -180t93 -64q100 0 177 157t77 317q0 118 -32 180t-88 62q-100 0 -182 -157t-82 -315z" />
<glyph unicode="&#xf6;" horiz-adv-x="824" d="M136 290q0 208 144 394t296 186q118 0 183 -82t65 -226q0 -206 -145 -389t-297 -183q-120 0 -183 78t-63 222zM288 316q0 -116 37 -180t93 -64q100 0 177 157t77 317q0 118 -32 180t-88 62q-100 0 -182 -157t-82 -315zM330 1102q0 46 29 79t73 33q30 0 52 -24t22 -56 q0 -48 -31 -84t-77 -36q-32 0 -50 26t-18 62zM668 1102q0 46 29 79t73 33q30 0 52 -24t22 -56q0 -48 -31 -84t-77 -36q-32 0 -50 26t-18 62z" />
<glyph unicode="&#xf7;" horiz-adv-x="916" d="M0 448q0 52 44 108h860q8 0 8 -18q0 -62 -42 -108h-860q-10 0 -10 18zM296 96q0 46 29 79t73 33q30 0 51 -24t21 -56q0 -48 -30 -84t-76 -36q-32 0 -50 26t-18 62zM444 868q0 46 29 79t73 33q30 0 52 -24t22 -56q0 -48 -31 -84t-77 -36q-32 0 -50 26t-18 62z" />
<glyph unicode="&#xf8;" horiz-adv-x="782" d="M138 326q0 212 131 378t287 166q116 0 187 -94t71 -242q0 -212 -130 -378t-286 -166q-116 0 -188 94t-72 242zM156 40l616 798q48 -24 38 -38l-616 -800q-48 24 -38 40zM286 344q0 -122 39 -199t105 -77q100 0 168 147t68 303q0 120 -40 198t-104 78q-100 0 -168 -147 t-68 -303z" />
<glyph unicode="&#xf9;" horiz-adv-x="944" d="M150 698q24 40 101 106t129 66q32 0 50 -29t18 -75q0 -54 -12 -106l-70 -330q-14 -58 -14 -108q0 -86 38 -86q28 0 80 47t109 122t108 183t71 214l34 156q26 8 62 8t68 -8l-124 -646q-6 -24 -6 -50q0 -50 20 -50q12 0 29 11t34 27t31 31t26 27l12 14q4 0 15 -19t11 -27 q-26 -44 -108 -116t-144 -72q-32 0 -50 29t-18 75q0 32 14 106l36 184q-20 -38 -82 -124t-156 -178t-154 -92q-100 0 -100 132q0 92 28 218l60 278q10 72 10 80q0 50 -20 50q-8 0 -22 -9t-29 -23t-27 -26t-22 -24l-10 -12q-4 0 -15 19t-11 27zM294 1224q0 30 33 43t65 13 q30 0 40 -10q4 -4 31 -32t56 -59t59 -65t50 -58t20 -28q0 -12 -9 -24t-17 -12q-32 0 -180 95t-148 137z" />
<glyph unicode="&#xfa;" horiz-adv-x="944" d="M150 698q24 40 101 106t129 66q32 0 50 -29t18 -75q0 -54 -12 -106l-70 -330q-14 -58 -14 -108q0 -86 38 -86q28 0 80 47t109 122t108 183t71 214l34 156q26 8 62 8t68 -8l-124 -646q-6 -24 -6 -50q0 -50 20 -50q12 0 29 11t34 27t31 31t26 27l12 14q4 0 15 -19t11 -27 q-26 -44 -108 -116t-144 -72q-32 0 -50 29t-18 75q0 32 14 106l36 184q-20 -38 -82 -124t-156 -178t-154 -92q-100 0 -100 132q0 92 28 218l60 278q10 72 10 80q0 50 -20 50q-8 0 -22 -9t-29 -23t-27 -26t-22 -24l-10 -12q-4 0 -15 19t-11 27zM512 1016q0 14 85 110t145 142 q16 10 52 10q78 0 78 -48q0 -44 -161 -141t-185 -97q-4 0 -9 8t-5 16z" />
<glyph unicode="&#xfb;" horiz-adv-x="944" d="M150 698q24 40 101 106t129 66q32 0 50 -29t18 -75q0 -54 -12 -106l-70 -330q-14 -58 -14 -108q0 -86 38 -86q28 0 80 47t109 122t108 183t71 214l34 156q26 8 62 8t68 -8l-124 -646q-6 -24 -6 -50q0 -50 20 -50q12 0 29 11t34 27t31 31t26 27l12 14q4 0 15 -19t11 -27 q-26 -44 -108 -116t-144 -72q-32 0 -50 29t-18 75q0 32 14 106l36 184q-20 -38 -82 -124t-156 -178t-154 -92q-100 0 -100 132q0 92 28 218l60 278q10 72 10 80q0 50 -20 50q-8 0 -22 -9t-29 -23t-27 -26t-22 -24l-10 -12q-4 0 -15 19t-11 27zM334 1007q-2 15 0 25l124 102 q74 60 108 102q18 18 22 18q6 0 18 -18q48 -78 56 -88q18 -24 43 -53t39 -45t14 -18q-10 -40 -26 -40q-34 0 -172 116q-52 -36 -125 -76t-89 -40q-10 0 -12 15z" />
<glyph unicode="&#xfc;" horiz-adv-x="944" d="M150 698q24 40 101 106t129 66q32 0 50 -29t18 -75q0 -54 -12 -106l-70 -330q-14 -58 -14 -108q0 -86 38 -86q28 0 80 47t109 122t108 183t71 214l34 156q26 8 62 8t68 -8l-124 -646q-6 -24 -6 -50q0 -50 20 -50q12 0 29 11t34 27t31 31t26 27l12 14q4 0 15 -19t11 -27 q-26 -44 -108 -116t-144 -72q-32 0 -50 29t-18 75q0 32 14 106l36 184q-20 -38 -82 -124t-156 -178t-154 -92q-100 0 -100 132q0 92 28 218l60 278q10 72 10 80q0 50 -20 50q-8 0 -22 -9t-29 -23t-27 -26t-22 -24l-10 -12q-4 0 -15 19t-11 27zM368 1102q0 46 29 79t73 33 q30 0 52 -24t22 -56q0 -48 -31 -84t-77 -36q-32 0 -50 26t-18 62zM706 1102q0 46 29 79t73 33q30 0 52 -24t22 -56q0 -48 -31 -84t-77 -36q-32 0 -50 26t-18 62z" />
<glyph unicode="&#xfd;" horiz-adv-x="958" d="M-54 -384q0 64 46 88q44 -26 134 -26q166 0 288 178q46 68 46 268q0 98 -5 195t-18 199t-38 165t-59 63q-18 0 -54 -34t-56 -60q-4 0 -15 19t-11 27q12 30 95 101t133 71q60 0 99 -102t53 -267t18 -258t4 -187q78 96 156 245t78 269q0 118 -50 214q26 86 100 86 q88 0 88 -158q0 -220 -172 -505t-389 -479t-351 -194q-52 0 -86 24t-34 58zM638 1016q0 14 85 110t145 142q16 10 52 10q78 0 78 -48q0 -44 -161 -141t-185 -97q-4 0 -9 8t-5 16z" />
<glyph unicode="&#xfe;" horiz-adv-x="946" d="M-36 -454l10 56q18 0 58 15t46 29q30 72 52 180l242 1252q20 110 20 154q-2 24 -55 29t-53 7q0 4 4 12q0 4 6 18t12 14q166 18 256 76h4q6 0 12 -12t6 -20q-36 -64 -56 -174l-74 -384l-2 -4v-6t2 -2q130 88 204 90q142 0 212 -83t70 -215q0 -212 -147 -410t-347 -198 q-86 0 -142 30q-4 -8 -8 -24l-30 -150q-26 -134 -26 -170v-10q0 -14 34 -29t50 -15q2 0 2 -8q0 -28 -10 -48q-22 2 -76 7t-94 5q-42 0 -101 -5t-81 -7zM332 158q0 -48 53 -76t119 -28q82 0 146 86t93 193t29 197q0 232 -216 232q-44 0 -83 -31t-47 -79l-92 -478 q-2 -6 -2 -16z" />
<glyph unicode="&#xff;" horiz-adv-x="958" d="M-54 -384q0 64 46 88q44 -26 134 -26q166 0 288 178q46 68 46 268q0 98 -5 195t-18 199t-38 165t-59 63q-18 0 -54 -34t-56 -60q-4 0 -15 19t-11 27q12 30 95 101t133 71q60 0 99 -102t53 -267t18 -258t4 -187q78 96 156 245t78 269q0 118 -50 214q26 86 100 86 q88 0 88 -158q0 -220 -172 -505t-389 -479t-351 -194q-52 0 -86 24t-34 58zM366 1102q0 46 29 79t73 33q30 0 52 -24t22 -56q0 -48 -31 -84t-77 -36q-32 0 -50 26t-18 62zM704 1102q0 46 29 79t73 33q30 0 52 -24t22 -56q0 -48 -31 -84t-77 -36q-32 0 -50 26t-18 62z" />
<glyph unicode="&#x152;" horiz-adv-x="1870" d="M64 518q0 208 110 399t282 304t352 113q76 0 260 -11t242 -11q82 0 282 8t304 8q-2 -28 -2 -78q0 -34 2 -98t2 -96q-10 -10 -36 -10q-24 0 -24 14q-6 112 -52 142t-146 30h-108q-142 0 -152 -26q-22 -60 -36 -134l-64 -350q0 -6 5 -9t17 -4l24 -2t28 -1h90q132 0 164 19 t78 123q6 14 28 14q24 0 30 -10l-74 -384q-12 -8 -28 -8q-26 0 -28 16q-2 54 -8 81t-9 32t-13 13q-20 16 -194 16q-132 0 -136 -18l-58 -296q-22 -106 -22 -174q0 -30 16 -36t106 -6h90q174 0 242 34q32 16 75 71t81 131q6 12 30 12q34 0 42 -12q-140 -260 -164 -332 q-106 0 -330 7t-304 7q-152 0 -214 -4q-44 -2 -112 -8t-117 -10t-79 -4q-214 0 -343 153t-129 385zM246 534q0 -204 89 -336t253 -132q128 0 204 20t156 94q14 12 27 32t25 51t22 57t21 70t18 71t18 78t15 72t14 72t12 61q0 4 8 44t10 51t8 49t7 55t4 50t0 52t-6 44t-11 44 t-20 35q-12 14 -26 27t-34 21t-38 14t-44 10t-43 6t-47 3t-43 1h-44h-39q-216 0 -366 -223t-150 -493z" />
<glyph unicode="&#x153;" horiz-adv-x="1174" d="M54 316q0 204 139 379t309 175q154 0 210 -180q146 180 312 180q140 0 140 -158q0 -78 -86 -162t-191 -134t-169 -50q-8 0 -8 -18q0 -236 152 -236q40 0 84 34t72 68t30 34t6 -7t9 -18t5 -19q-16 -48 -100 -130t-164 -82q-66 0 -124 44t-90 122q-136 -168 -308 -168 q-112 0 -170 96t-58 230zM204 340q0 -270 130 -270q94 0 172 151t78 311q0 54 -3 90t-14 80t-37 67t-66 23q-102 0 -181 -149t-79 -303zM724 448q0 -12 14 -12q70 0 179 87t109 181q0 88 -42 88q-88 0 -174 -136t-86 -208z" />
<glyph unicode="&#x178;" horiz-adv-x="1186" d="M240 1272q0 34 14 44q24 -2 102 -7t132 -5q20 0 248 12v-10q0 -44 -14 -44q-30 0 -78 -21t-48 -63q0 -20 8 -44l138 -424q26 34 91 118t100 131t79 107t64 92t20 42q-2 26 -43 44t-81 18q-4 0 -4 12q0 32 14 42q16 0 80 -6t104 -6q10 0 238 12q2 -4 2 -10q0 -44 -14 -44 q-20 0 -79 -19t-83 -43t-241 -317t-221 -313l-56 -292q-22 -110 -22 -180q0 -16 27 -29t55 -17l26 -4q4 0 4 -8q0 -22 -12 -46q-186 10 -208 10q-6 0 -222 -10q-2 2 -2 14q0 40 14 40q22 0 70 14t58 30q24 42 50 180l52 284q2 8 -40 141t-86 263l-42 130q-30 92 -78 128 q-20 14 -58 29t-54 15q-4 0 -4 10zM616 1556q8 42 40 71t72 29q38 0 60 -29t14 -71t-41 -71t-73 -29q-38 0 -59 29t-13 71zM952 1556q8 42 40 71t72 29q38 0 60 -29t14 -71t-40 -71t-72 -29q-38 0 -60 29t-14 71z" />
<glyph unicode="&#x2c6;" horiz-adv-x="920" d="M1396 1427q-2 15 0 25l124 102q74 60 108 102q18 18 22 18q6 0 18 -18q48 -78 56 -88q18 -24 43 -53t39 -45t14 -18q-10 -40 -26 -40q-34 0 -172 116q-52 -36 -125 -76t-89 -40q-10 0 -12 15z" />
<glyph unicode="&#x2dc;" horiz-adv-x="920" d="M1258 1458q0 50 57 114t129 64q56 0 132 -53t132 -53q20 0 48 22t49 44t23 22q8 0 8 -18q0 -46 -53 -109t-127 -63q-56 0 -133 53t-133 53q-28 0 -74 -44t-48 -44q-10 0 -10 12z" />
<glyph unicode="&#x2000;" horiz-adv-x="858" />
<glyph unicode="&#x2001;" horiz-adv-x="1716" />
<glyph unicode="&#x2002;" horiz-adv-x="858" />
<glyph unicode="&#x2003;" horiz-adv-x="1716" />
<glyph unicode="&#x2004;" horiz-adv-x="572" />
<glyph unicode="&#x2005;" horiz-adv-x="429" />
<glyph unicode="&#x2006;" horiz-adv-x="286" />
<glyph unicode="&#x2007;" horiz-adv-x="286" />
<glyph unicode="&#x2008;" horiz-adv-x="214" />
<glyph unicode="&#x2009;" horiz-adv-x="343" />
<glyph unicode="&#x200a;" horiz-adv-x="95" />
<glyph unicode="&#x2010;" horiz-adv-x="590" d="M38 428q0 20 14 56t28 38l454 24q12 0 12 -24q0 -22 -16 -61t-30 -41l-452 -22q-10 0 -10 30z" />
<glyph unicode="&#x2011;" horiz-adv-x="590" d="M38 428q0 20 14 56t28 38l454 24q12 0 12 -24q0 -22 -16 -61t-30 -41l-452 -22q-10 0 -10 30z" />
<glyph unicode="&#x2012;" horiz-adv-x="590" d="M38 428q0 20 14 56t28 38l454 24q12 0 12 -24q0 -22 -16 -61t-30 -41l-452 -22q-10 0 -10 30z" />
<glyph unicode="&#x2013;" horiz-adv-x="972" d="M128 426q0 22 14 55t30 43h832q12 0 12 -26q0 -22 -14 -55t-30 -43h-832q-12 0 -12 26z" />
<glyph unicode="&#x2014;" horiz-adv-x="1448" d="M128 426q0 22 14 55t30 43h1304q12 0 12 -26q0 -22 -14 -55t-30 -43h-1304q-12 0 -12 26z" />
<glyph unicode="&#x2018;" horiz-adv-x="296" d="M244 1110q16 84 80 159t117 109t67 34q22 0 28 -36q-56 -32 -97 -75t-53 -67t-16 -40q-4 -26 26 -71t24 -73q-8 -36 -50 -61t-88 -25q-18 0 -36 6q-20 46 -2 140z" />
<glyph unicode="&#x2019;" horiz-adv-x="296" d="M228 1004q56 32 97 75t54 68t17 39q4 26 -25 71t-23 73q8 36 49 61t87 25q18 0 36 -6q20 -42 0 -140q-16 -84 -80 -159t-116 -109t-66 -34q-24 0 -30 36z" />
<glyph unicode="&#x201a;" horiz-adv-x="296" d="M2 -160q56 32 97 75t54 68t17 39q4 26 -26 71t-24 73q8 36 50 61t88 25q18 0 36 -6q20 -42 0 -140q-16 -84 -80 -159t-116 -108t-66 -33q-24 0 -30 34z" />
<glyph unicode="&#x201c;" horiz-adv-x="572" d="M244 1110q16 84 80 159t117 109t67 34q22 0 28 -36q-56 -32 -97 -75t-53 -67t-16 -40q-4 -26 26 -71t24 -73q-8 -36 -50 -61t-88 -25q-18 0 -36 6q-20 46 -2 140zM512 970q-20 42 0 140q16 84 80 159t116 109t66 34q24 0 30 -36q-56 -32 -97 -75t-54 -68t-17 -39 q-4 -26 26 -71t24 -73q-8 -36 -49 -61t-87 -25q-20 0 -38 6z" />
<glyph unicode="&#x201d;" horiz-adv-x="574" d="M228 1004q56 32 97 75t54 68t17 39q4 26 -25 71t-23 73q8 36 49 61t87 25q18 0 36 -6q20 -42 0 -140q-16 -84 -80 -159t-116 -109t-66 -34q-24 0 -30 36zM496 1004q56 32 97 75t53 67t16 40q4 26 -25 71t-23 73q8 36 49 61t87 25q18 0 36 -6q20 -46 2 -140 q-16 -84 -80 -159t-117 -109t-67 -34q-22 0 -28 36z" />
<glyph unicode="&#x201e;" horiz-adv-x="572" d="M2 -160q56 32 97 75t54 68t17 39q4 26 -26 71t-24 73q8 36 50 61t88 25q18 0 36 -6q20 -42 0 -140q-16 -84 -80 -159t-116 -108t-66 -33q-24 0 -30 34zM268 -164q56 32 97 75t53 67t16 40q4 26 -25 71t-23 73q8 36 50 61t88 25q18 0 36 -6q20 -42 0 -140 q-16 -84 -80 -159t-116 -108t-66 -33q-24 0 -30 34z" />
<glyph unicode="&#x2022;" horiz-adv-x="752" d="M276 526q16 88 88 152t154 64t128 -64t30 -152t-88 -152t-154 -64t-128 64t-30 152z" />
<glyph unicode="&#x2026;" horiz-adv-x="1296" d="M90 64q0 56 39 98t89 42q38 0 63 -25t25 -65q0 -54 -41 -98t-91 -44q-38 0 -61 26t-23 66zM564 64q0 56 39 98t89 42q38 0 63 -25t25 -65q0 -54 -41 -98t-91 -44q-38 0 -61 26t-23 66zM1034 64q0 56 40 98t90 42q38 0 63 -25t25 -65q0 -54 -42 -98t-92 -44q-38 0 -61 26 t-23 66z" />
<glyph unicode="&#x202f;" horiz-adv-x="343" />
<glyph unicode="&#x2039;" horiz-adv-x="596" d="M174 474q0 36 26 62q122 70 234 149t155 115t53 46q38 -12 38 -32q0 -6 -2 -11t-9 -12l-14 -14t-20 -19t-25 -22t-33 -27t-39 -33q-30 -26 -111 -101t-87 -81l126 -180q18 -26 36 -48t26 -33t15 -20t9 -14t2 -11q0 -10 -7 -18t-12 -11t-19 -7l-12 -6q-4 6 -30 37 t-106 109t-186 162q-8 6 -8 20z" />
<glyph unicode="&#x203a;" horiz-adv-x="596" d="M116 176q0 6 2 12t8 13l12 14t19 18t25 21t32 27t38 33l198 180q-10 14 -59 86t-69 96q-88 114 -88 124q0 24 52 46q4 -8 35 -46t111 -116t174 -148q10 -16 10 -32q0 -40 -24 -50q-318 -194 -440 -308q-36 12 -36 30z" />
<glyph unicode="&#x205f;" horiz-adv-x="429" />
<glyph unicode="&#x20ac;" horiz-adv-x="1228" d="M14 500q0 18 11 42t23 32h90q6 62 28 132h-98q-10 0 -10 20q0 18 11 42t23 32h110q92 198 265 332t381 134q128 0 402 -86q-34 -216 -38 -234q-6 -28 -44 -28q-18 0 -22 4q0 28 -2 51t-19 66t-46 72t-92 52t-149 23q-134 0 -265 -108t-203 -278h392q8 0 8 -20 q0 -18 -11 -42t-23 -32h-400q-20 -74 -26 -132h408q8 0 8 -20q0 -18 -11 -42t-23 -32h-386q4 -180 94 -293t266 -113q92 0 168 21t121 51t77 61t50 52t24 21q8 0 23 -17t15 -29q-50 -90 -174 -170q-114 -72 -342 -72q-218 0 -351 144t-143 344h-110q-10 0 -10 20z" />
<glyph unicode="&#x25fc;" horiz-adv-x="870" d="M0 0v870h870v-870h-870z" />
</font>
</defs>
</svg>
